<?xml version="1.0" standalone="no"?>
<!DOCTYPE svg PUBLIC "-//W3C//DTD SVG 1.1//EN" "http://www.w3.org/Graphics/SVG/1.1/DTD/svg11.dtd" >
<svg>
<metadata>
Created by FontForge 20090914 at Wed Jun 24 03:53:28 2015
 By www-data
Copyright (c) 2011-12, vernon adams (vern@newtypography.co.uk), with Reserved Font Names 'Antonio'
</metadata>
<defs>
<font id="Antonio-Regular" horiz-adv-x="968" >
  <font-face 
    font-family="Antonio"
    font-weight="400"
    font-stretch="ultra-condensed"
    units-per-em="2048"
    panose-1="2 0 5 3 0 0 0 0 0 0"
    ascent="1638"
    descent="-410"
    x-height="1500"
    cap-height="1760"
    bbox="-161 -670 2886 2382"
    underline-thickness="0"
    underline-position="0"
    unicode-range="U+0020-U+FB04"
  />
<missing-glyph horiz-adv-x="1024" 
d="M102 1092h820v-1092h-820v1092zM820 102v888h-616v-888h616z" />
    <glyph glyph-name=".notdef" horiz-adv-x="1024" 
d="M102 1092h820v-1092h-820v1092zM820 102v888h-616v-888h616z" />
    <glyph glyph-name="space" unicode=" " horiz-adv-x="503" 
 />
    <glyph glyph-name="exclam" unicode="!" horiz-adv-x="528" 
d="M146 1760h235l-75 -1365h-84zM151 228h222v-228h-222v228z" />
    <glyph glyph-name="quotedbl" unicode="&#x22;" horiz-adv-x="944" 
d="M535 1761h199l-65 -636h-70zM220 1761h199l-65 -636h-70z" />
    <glyph glyph-name="numbersign" unicode="#" horiz-adv-x="1288" 
d="M907 1761h172l-117 -591h144v-134h-171l-54 -276h170v-134h-197l-124 -626h-171l122 626h-203l-122 -626h-171l123 626h-147v134h174l54 276h-173v134h200l117 591h172l-119 -591h202zM709 759l54 273h-204l-55 -273h205z" />
    <glyph glyph-name="dollar" unicode="$" horiz-adv-x="881" 
d="M745 354c0 -214 -83.001 -333.668 -249.001 -359.001v-241h-125v239c-82 10 -147.667 46.333 -197 109s-74 170 -74 322v113h199v-112c0 -173.333 39.333 -260 118 -260c43.333 0 74.5 14 93.5 42s28.5 76.667 28.5 146c0 108.667 -50 212 -150 310
c-7.33301 7.33301 -24.666 23.833 -51.999 49.5l-54 51.5c-130 124 -195 261 -195 411c0 212.667 89.333 329.334 268 350.001v235h125v-238c39.333 -6.66699 73 -19 101 -37c92 -60 138 -201.667 138 -425v-72h-195v104c0 87.333 -8.5 152.5 -25.5 195.5
s-46.167 64.5 -87.5 64.5s-72.333 -13 -93 -39s-31 -70 -31 -132c0 -97.333 45.667 -191.333 137 -282l108 -101c141.333 -135.333 212 -283.333 212 -444z" />
    <glyph glyph-name="percent" unicode="%" horiz-adv-x="2178" 
d="M1360 1760h171l-700 -1760h-179zM591 1433c0 72 -8.66699 121.333 -26 148s-50.333 40 -99 40s-81.667 -13.5 -99 -40.5s-26 -76.167 -26 -147.5v-496c0 -73.333 8.83301 -124.166 26.5 -152.499s50.5 -42.5 98.5 -42.5s80.833 14.167 98.5 42.5
s26.5 79.166 26.5 152.499v496zM156 1364c0 156 22.6689 264.667 68.002 326s126.166 92 242.499 92s197.166 -30.667 242.499 -92s68 -170 68 -326v-355c0 -158.667 -23 -269.667 -69 -333s-126.5 -95 -241.5 -95s-195.5 31.667 -241.5 95s-69 174.333 -69 333v355z
M1401 763c0 156 22.6689 264.667 68.002 326s126.166 92 242.499 92s197.166 -30.667 242.499 -92s68 -170 68 -326v-355c0 -158.667 -23 -269.667 -69 -333s-126.5 -95 -241.5 -95s-195.5 31.667 -241.5 95s-69 174.333 -69 333v355zM1837 832
c0 72 -8.66797 121.333 -26.001 148s-50.333 40 -99 40s-81.667 -13.5 -99 -40.5s-26 -76.167 -26 -147.5v-496c0 -73.333 8.83301 -124.166 26.5 -152.499s50.334 -42.5 98.001 -42.5s80.5 14.167 98.5 42.5s27 79.166 27 152.499v496z" />
    <glyph glyph-name="ampersand" unicode="&#x26;" horiz-adv-x="981" 
d="M610 357l-187.001 406c-112.667 -150 -169 -288.833 -169 -416.5s51.667 -191.5 155 -191.5c40 0 74.833 16.5 104.5 49.5s61.834 83.833 96.501 152.5zM479.999 1098c98 124 147 239.668 147 347.001c0 68 -7.83301 116.333 -23.5 145s-45.667 43 -90 43
s-75.5 -12 -93.5 -36s-28.333 -48.333 -31 -73s-4 -52.334 -4 -83.001c0 -60.667 31.667 -175 95 -343zM981.999 690.001c-56 -67.333 -118.669 -175.669 -188.002 -325.002c106 -233.333 161 -355 165 -365h-184c-10.667 26 -36.667 83.667 -78 173
c-38.667 -62 -82.667 -109.667 -132 -143s-116.666 -50 -201.999 -50s-156.166 32.833 -212.499 98.5s-84.5 158.5 -84.5 278.5s26.333 223.667 79 311s119.667 178 201 272c-103.333 246 -155 411.667 -155 497c0 112.667 26.5 198.334 79.5 257.001s130.167 88 231.5 88
s174.333 -29 219 -87s67 -139.333 67 -244s-22.5 -196.5 -67.5 -275.5s-102.167 -162.833 -171.5 -251.5c38 -93.333 91.333 -216.666 160 -369.999c58 108.667 119.667 202 185 280z" />
    <glyph glyph-name="quotesingle" unicode="'" horiz-adv-x="413" 
d="M112 1761h197l-65 -636h-72z" />
    <glyph glyph-name="parenleft" unicode="(" horiz-adv-x="567" 
d="M131 1391c0 133.333 13.667 230.665 41 291.998c28 62.667 82.667 101.667 164 117c36 6.66699 82.333 10.334 139 11.001v-155c-46.667 0 -78 -5.83301 -94 -17.5s-27.5 -33.5 -34.5 -65.5s-10.5 -94.667 -10.5 -188v-1076c0 -147.333 11.5 -229.333 34.5 -246
s57.833 -25 104.5 -25v-155c-104.667 0.666992 -183 16.334 -235 47.001c-72 43.333 -108.333 171 -109 383v1078z" />
    <glyph glyph-name="parenright" unicode=")" horiz-adv-x="567" 
d="M92 1656v155.002c70.667 0 126.5 -5.16699 167.5 -15.5s75.667 -31.5 104 -63.5s47.666 -75.333 57.999 -130s15.5 -128.334 15.5 -221.001v-1068c0 -92.667 -5.16699 -166.334 -15.5 -221.001s-29.666 -98 -57.999 -130s-63 -53.167 -104 -63.5
s-96.833 -15.5 -167.5 -15.5v155c46.667 0 78 5.83301 94 17.5s27.5 33.667 34.5 66s10.5 94.833 10.5 187.5v1076c0 147.333 -11.5 229.333 -34.5 246s-57.833 25 -104.5 25z" />
    <glyph glyph-name="asterisk" unicode="*" horiz-adv-x="960" 
d="M400 1727h160l-24 -273l226 172l81 -139l-257 -126l257 -133l-81 -140l-226 178l24 -278h-160l30 283l-227 -176l-80 140l250 126l-256 119l81 139l231 -168z" />
    <glyph glyph-name="plus" unicode="+" horiz-adv-x="808" 
d="M327 1137h149v-246h227v-140h-227v-250h-149v250h-224v140h224v246z" />
    <glyph glyph-name="comma" unicode="," horiz-adv-x="462" 
d="M119 235h258v-226l-101 -353h-106l73 344h-124v235z" />
    <glyph glyph-name="hyphen" unicode="-" horiz-adv-x="696" 
d="M88 899h452v-136h-452v136z" />
    <glyph glyph-name="period" unicode="." horiz-adv-x="532" 
d="M171 198h175v-198h-175v198z" />
    <glyph glyph-name="slash" unicode="/" horiz-adv-x="783" 
d="M526 1768h183l-440 -1768h-182z" />
    <glyph glyph-name="zero" unicode="0" horiz-adv-x="915" 
d="M101 1316c0 156 24.499 272.501 73.499 349.501s142.333 115.5 280 115.5s231.5 -38.333 281.5 -115s75 -193.334 75 -350.001v-841c0 -162 -24.167 -285.167 -72.5 -369.5s-142.666 -126.5 -282.999 -126.5s-234.5 41.833 -282.5 125.5s-72 207.167 -72 370.5v841z
M604.999 1327c0 170.667 -36.335 262.334 -109.002 275.001c-11.333 2 -27.666 3 -48.999 3s-41.833 -4 -61.5 -12s-37.667 -31.667 -54 -71s-24.5 -104 -24.5 -194v-858v-8c0 -158.667 19.667 -253.334 59 -284.001c20 -16 44.167 -24 72.5 -24s48.5 1.33301 60.5 4
c12.667 1.33301 26.334 8 41.001 20c43.333 33.333 65 128.333 65 285v7v857z" />
    <glyph glyph-name="one" unicode="1" horiz-adv-x="645" 
d="M325 1761h146v-1761h-206v1483c-22.667 -27.333 -54.667 -48.5 -96 -63.5s-82 -22.5 -122 -22.5v144c56.667 8 110.5 31 161.5 69s89.833 88.333 116.5 151z" />
    <glyph glyph-name="two" unicode="2" horiz-adv-x="892" 
d="M162 1173c0 274.667 28.665 443.663 85.998 506.996c22 24 44.333 43.333 67 58c43.333 28 104 42 182 42c192.667 0 289 -162.333 289 -487c0 -161.333 -41.667 -320.666 -125 -477.999l-111 -200c-94 -162.667 -152.667 -316 -176 -460h385v-155h-585v98
c0 132.667 66.667 328.334 200 587.001c0.666992 0.666992 22.334 42.334 65.001 125.001s68.334 130 77.001 142c22 40.667 39.833 95 53.5 163s20.5 137 20.5 207s-5 127.333 -15 172s-22.333 74.167 -37 88.5s-32.167 21.5 -52.5 21.5s-36.833 -4 -49.5 -12
c-48 -29.333 -72 -128.666 -72 -297.999v-229h-202v108z" />
    <glyph glyph-name="three" unicode="3" horiz-adv-x="908" 
d="M624 927c121.333 -55.333 182.003 -202.668 182.003 -442.001c0 -171.333 -28.333 -298.333 -85 -381s-146.667 -124 -270 -124s-210.333 39.667 -261 119s-76 204.333 -76 375v78h200v-81c0 -124.667 8.5 -208.5 25.5 -251.5s54.667 -64.5 113 -64.5
s97.666 24.667 117.999 74s30.5 137.833 30.5 265.5s-13.833 217.334 -41.5 269.001s-76.834 77.5 -147.501 77.5h-57v165h55c49.333 0 86.666 8 111.999 24c51.333 32 77 126.333 77 283v6c0 116.667 -13 193.334 -39 230.001s-61.833 55 -107.5 55s-79 -20.833 -100 -62.5
s-31.5 -116.834 -31.5 -225.501v-42h-203v45c0 158 25.667 274.333 77 349s137.333 112 258 112s209 -38.167 265 -114.5s84 -191.833 84 -346.5c0 -217.333 -59.333 -348 -178 -392z" />
    <glyph glyph-name="four" unicode="4" horiz-adv-x="892" 
d="M487 1761h213v-1265h145v-164h-145v-333h-188v333h-416v145zM512 496v916l-246 -916h246z" />
    <glyph glyph-name="five" unicode="5" horiz-adv-x="892" 
d="M335 1163c23.333 46.667 80.999 70.002 172.999 70.002h3c45.333 0 85.666 -15.667 120.999 -47c72.667 -65.333 109 -238 109 -518c0 -217.333 -5.16699 -352.333 -15.5 -405s-20.833 -94.334 -31.5 -125.001c-34.667 -105.333 -121 -158 -259 -158
c-204.667 0 -307 112 -307 336v194h200v-195c0 -50.667 7.83301 -90.167 23.5 -118.5s42.834 -42.5 81.501 -42.5s66.5 14 83.5 42s25.5 71.333 25.5 130v525c0 71.333 -7.66699 123.666 -23 156.999s-41.666 50 -78.999 50c-77.333 0 -116 -62.333 -116 -187l-178 16v873
h553v-186h-364v-411z" />
    <glyph glyph-name="six" unicode="6" horiz-adv-x="892" 
d="M313 1016c43.333 57.333 116 85.999 218 85.999s175.833 -40.333 221.5 -121s68.5 -218 68.5 -412v-107c0 -160.667 -24.5 -281.167 -73.5 -361.5s-141.5 -120.5 -277.5 -120.5c-165.333 0 -272.333 70 -321 210c-28 81.333 -42 190 -42 326v741
c0 190 26.833 324.667 80.5 404s143.167 119 268.5 119s209.833 -36.167 253.5 -108.5s66.167 -193.166 67.5 -362.499v-60h-199v33c0 158 -10 251 -30 279s-55 42 -105 42s-84.167 -23 -102.5 -69s-27.5 -136.667 -27.5 -272v-246zM618 572.999
c0 133.333 -9.66504 225.499 -28.998 276.499s-57 76.5 -113 76.5c-38.667 0 -73.334 -8 -104.001 -24s-50.334 -32 -59.001 -48v-372c0 -117.333 11 -200.666 33 -249.999s63.333 -74 124 -74c40 0 70 8 90 24c38.667 30 58 116 58 258v133z" />
    <glyph glyph-name="seven" unicode="7" horiz-adv-x="892" 
d="M113 1761l702 0.000976562v-150c-1.33301 -10.667 -20.666 -68.834 -57.999 -174.501s-71.333 -213.5 -102 -323.5c-109.333 -376 -175.333 -746.667 -198 -1112h-221c27.333 364.667 107.333 758.667 240 1182c41.333 138.667 74.666 240.5 99.999 305.5
s38 97.833 38 98.5h-501v174z" />
    <glyph glyph-name="eight" unicode="8" horiz-adv-x="892" 
d="M116 1344c0 154.667 25.666 266 76.999 334s137.833 102 259.5 102s207.667 -33.833 258 -101.5s75.5 -179.167 75.5 -334.5c0 -200 -47.667 -332.667 -143 -398c44 -32.667 79.333 -91.834 106 -177.501s40 -177.167 40 -274.5v-70
c-2.66699 -155.333 -30.334 -268.166 -83.001 -338.499s-137.667 -105.5 -255 -105.5s-203.666 35 -258.999 105s-84.666 180.667 -87.999 332c-0.666992 8 -1 47.5 -1 118.5s13.667 148.833 41 233.5s64.333 142.667 111 174c-92.667 66 -139 199.667 -139 401z
M582.999 507c0 118.667 -11.501 207.667 -34.501 267s-55 89 -96 89s-75 -30.5 -102 -91.5s-40.5 -150.167 -40.5 -267.5v-69c0.666992 -107.333 10.334 -181 29.001 -221s53 -60 103 -60s84.333 11.833 103 35.5s29.667 59.667 33 108s5 95.833 5 142.5v67zM561.998 1132.5
c12 50.333 18.001 112.331 18.001 185.998s-2.5 129.334 -7.5 167.001s-13.5 65.834 -25.5 84.501s-25 30.667 -39 36s-34.833 8 -62.5 8s-50.167 -6 -67.5 -18c-37.333 -27.333 -56 -118.833 -56 -274.5s20 -252.167 60 -289.5c17.333 -16.667 39.666 -25 66.999 -25
s50 8.33301 68 25s33 50.167 45 100.5z" />
    <glyph glyph-name="nine" unicode="9" horiz-adv-x="892" 
d="M67 1250c0 136.667 9.49902 236.168 28.499 298.501s40.5 107.833 64.5 136.5c54 63.333 136.5 95 247.5 95s191 -29 240 -87s78.5 -147.333 88.5 -268c4 -48.667 6 -109 6 -181v-708c0 -238.667 -33.667 -395.334 -101 -470.001c-52 -57.333 -130.5 -86 -235.5 -86
s-181.5 36.667 -229.5 110s-73 193 -75 359v64h196v-30c0 -162 11.333 -257.167 34 -285.5s55.667 -42.5 99 -42.5s71.833 18.167 85.5 54.5s20.5 110.5 20.5 222.5v274c-34.667 -28.667 -85 -43 -151 -43c-125.333 0 -209.666 45 -252.999 135s-65 225.667 -65 407v45z
M535.999 1279c0 111.333 -6.33301 186.501 -19 225.501s-27.667 65 -45 78s-40 19.5 -68 19.5c-55.333 0 -91.333 -26.333 -108 -79s-25 -134.334 -25 -245.001v-101c0 -134.667 8.83301 -226.5 26.5 -275.5s57.667 -73.5 120 -73.5s101.833 18.667 118.5 56v395z" />
    <glyph glyph-name="colon" unicode=":" horiz-adv-x="555" 
d="M152 1307h251v-250h-251v250zM152 520h251v-250h-251v250z" />
    <glyph glyph-name="semicolon" unicode=";" horiz-adv-x="561" 
d="M143 534h285v-243l-114 -394h-124l86 385h-133v252zM133 1234h281v-280h-281v280z" />
    <glyph glyph-name="less" unicode="&#x3c;" horiz-adv-x="730" 
d="M64 860l576 381v-220l-433 -266l433 -277v-214l-576 385v211z" />
    <glyph glyph-name="equal" unicode="=" horiz-adv-x="722" 
d="M84 735h584v-159h-584v159zM84 1050h584v-158h-584v158z" />
    <glyph glyph-name="greater" unicode="&#x3e;" horiz-adv-x="730" 
d="M87 1027v214l576 -384v-211l-576 -382v220l433 265z" />
    <glyph glyph-name="question" unicode="?" horiz-adv-x="799" 
d="M140 1370c0 106 6.66699 177.667 20 215c24.667 70.667 57.334 121.167 98.001 151.5s97 45.5 169 45.5c111.333 0 187 -32.333 227 -97c27.333 -45.333 44.5 -99 51.5 -161s10.5 -133.167 10.5 -213.5s-2.66699 -146.5 -8 -198.5c-12 -116 -40 -204 -84 -264
s-112.667 -103.333 -206 -130v-224h-179v316c58 17.333 98.5 34 121.5 50s41 29.167 54 39.5s24.5 24.166 34.5 41.499c35.333 61.333 54.666 145 57.999 251c1.33301 46.667 2 111.834 2 195.501s-4 140.667 -12 171s-31.167 45.5 -69.5 45.5s-62 -15.667 -71 -47
s-13.5 -98.333 -13.5 -201v-196h-203v210zM242 299h177v-298h-177v298z" />
    <glyph glyph-name="at" unicode="@" horiz-adv-x="1406" 
d="M1077 518c64 0 95.998 115.996 95.998 347.996c0 159.333 -5.16699 272 -15.5 338s-22.166 118 -35.499 156c-62.667 184 -186.334 276 -371.001 276c-331.333 0 -497 -267.667 -497 -803c0 -268.667 36.333 -460.667 109 -576s183 -173 331 -173
c96 2.66699 161 12 195 28l22 -139c-94.667 -19.333 -168.334 -29 -221.001 -29c-194.667 0 -342.667 74.5 -444 223.5s-152 370.167 -152 663.5s52.5 525 157.5 695s275.833 255 512.5 255c278 0 451.333 -170.333 520 -511c21.333 -105.333 32 -218.166 32 -338.499
s-8.16699 -219.166 -24.5 -296.499s-43.166 -139.5 -80.499 -186.5s-80 -70.5 -128 -70.5s-88.5 20.833 -121.5 62.5s-55.5 91.834 -67.5 150.501c-12 -69.333 -36.333 -125 -73 -167s-77 -63 -121 -63c-82 0 -151 34.167 -207 102.5s-84 179 -84 332s22.667 272.5 68 358.5
s109.333 129 192 129c46.667 0 87.334 -13.167 122.001 -39.5s62.667 -58.166 84 -95.499l30 122h100v-557c0 -66 5.33301 -115 16 -147s29.334 -48 56.001 -48zM695.998 1133c-98.667 0 -148 -104 -148 -312s51 -312 153 -312c48.667 0 88.5 23.333 119.5 70
s46.5 106.667 46.5 180v303c-67.333 47.333 -124.333 71 -171 71z" />
    <glyph glyph-name="A" unicode="A" horiz-adv-x="939" 
d="M333 1760h249l291 -1760h-195l-50 336h-319l-46 -336h-197zM332 504h270l-139 930h-3z" />
    <glyph glyph-name="B" unicode="B" horiz-adv-x="952" 
d="M160 1760l317.999 -0.00195312c132.667 0 222.834 -30.167 270.501 -90.5s72.167 -162.166 73.5 -305.499v-38c0 -103.333 -9.66699 -184.666 -29 -243.999s-54 -102.333 -104 -129c108 -44 162 -185 162 -423v-37c-2 -176 -28.667 -302.167 -80 -378.5
s-140.333 -114.5 -267 -114.5h-344v1760zM642.999 559.998c0 113.333 -9.33203 192.667 -27.999 238s-55.334 68 -110.001 68h-138v-699h127c58.667 0 98.167 23 118.5 69s30.5 133.667 30.5 263v61zM617 1361v6.00098c0 117.333 -20.333 186.666 -61 207.999
c-20 10.667 -49 16 -87 16h-102v-566h117c40 0 68.5 6.5 85.5 19.5s29.167 38.833 36.5 77.5s11 102 11 190v49z" />
    <glyph glyph-name="C" unicode="C" horiz-adv-x="918" 
d="M124 1252c0 133.333 10.9971 231.332 32.9971 293.999s46 108.667 72 138c56.667 64 139.334 96.333 248.001 97c152 -0.666992 250 -67.667 294 -201c25.333 -76.667 38 -178.667 38 -306v-195h-203v196c0 112.667 -6.16699 188.834 -18.5 228.501
s-27.166 66 -44.499 79s-39.333 19.5 -66 19.5c-55.333 0 -93.5 -26.167 -114.5 -78.5s-31.5 -134.833 -31.5 -247.5v-762c0 -133.333 9.5 -226.5 28.5 -279.5s55.667 -79.5 110 -79.5s90.666 26.667 108.999 80s27.5 146.666 27.5 279.999v195h205v-193
c0 -184.667 -25.167 -320.5 -75.5 -407.5s-138.166 -130.5 -263.499 -130.5s-214.666 44.833 -267.999 134.5s-80 224.834 -80 405.501v733z" />
    <glyph glyph-name="D" unicode="D" horiz-adv-x="949" 
d="M143 1760h330.999c134.667 0 227.334 -41.5 278.001 -124.5s76 -200.833 76 -353.5l1 -773c0 -180.667 -27.667 -310.667 -83 -390s-148.333 -119 -279 -119h-324v1760zM621.999 1287c0 110 -13 189 -39 237s-68.667 72 -128 72h-106v-1429h106c40 0 71.333 8 94 24
c48.667 34.667 73 130 73 286v810z" />
    <glyph glyph-name="E" unicode="E" horiz-adv-x="771" 
d="M144 1760h526v-172h-319v-602h302v-172h-302v-642h323v-172h-530v1760z" />
    <glyph glyph-name="F" unicode="F" horiz-adv-x="746" 
d="M143 1760h530v-173h-324v-556h304v-175h-304v-856h-206v1760z" />
    <glyph glyph-name="G" unicode="G" horiz-adv-x="942" 
d="M124 1262c0 258.667 61.333 419.333 184 482c48 24 100.667 36.333 158 37c107.333 0 185 -22.833 233 -68.5s79 -106 93 -181s21 -166.167 21 -273.5v-136h-200v229c0 90 -9.16699 154.333 -27.5 193s-54.333 58 -108 58s-91.5 -24.333 -113.5 -73
s-33 -134.667 -33 -258v-740c0 -140.667 9.66699 -238.5 29 -293.5s57.5 -82.5 114.5 -82.5s96 28.333 117 85s31.5 155 31.5 295v229h-143v160h333v-924h-109l-28 136c-39.333 -102 -114.5 -153 -225.5 -153s-193.167 43.167 -246.5 129.5s-80 223.5 -80 411.5v738z" />
    <glyph glyph-name="H" unicode="H" horiz-adv-x="984" 
d="M633 1760h207v-1760h-207v853h-282v-853h-207v1760h207v-738h282v738z" />
    <glyph glyph-name="I" unicode="I" horiz-adv-x="527" 
d="M160 1760h207v-1760h-207v1760z" />
    <glyph glyph-name="J" unicode="J" horiz-adv-x="858" 
d="M511 1760h207v-1334c0 -298 -104.667 -447 -314 -447c-110.667 0 -192 33.833 -244 101.5s-78 170.5 -78 308.5v230h202v-217c0 -89.333 4 -144 12 -164s16 -36 24 -48c16 -23.333 42.5 -35 79.5 -35s63.333 12.5 79 37.5s25 55.667 28 92s4.5 80.833 4.5 133.5v1342z
" />
    <glyph glyph-name="K" unicode="K" horiz-adv-x="894" 
d="M664 1760h208l-328 -869l351 -891h-216l-326 842v-842h-209v1760h207v-839z" />
    <glyph glyph-name="L" unicode="L" horiz-adv-x="712" 
d="M144 1760h207v-1589h325v-171h-532v1760z" />
    <glyph glyph-name="M" unicode="M" horiz-adv-x="1296" 
d="M893 1760h259v-1760h-184v706l17 658l-239 -1361h-187l-249 1361l17 -658v-706h-183v1760h258l252 -1447z" />
    <glyph glyph-name="N" unicode="N" horiz-adv-x="1014" 
d="M687 1760h183v-1760h-152l-395 1208l12 -444v-764h-191v1760h156l408 -1198l-21 509v689z" />
    <glyph glyph-name="O" unicode="O" horiz-adv-x="944" 
d="M124 1282c0 200 35.998 337.333 107.998 412c56.667 58.667 139 88 247 88c157.333 0 258 -64.667 302 -194c26 -76.667 39 -178.667 39 -306v-776c0 -183.333 -25.667 -316.833 -77 -400.5s-141.166 -125.5 -269.499 -125.5s-218.666 42 -270.999 126
s-78.5 217.333 -78.5 400v776zM612.998 1294c0 112.667 -9.00195 192.5 -27.002 239.5s-54.333 70.5 -109 70.5s-92.667 -24 -114 -72s-32 -127 -32 -237v-791c0 -134 9.33301 -225.167 28 -273.5s56.334 -72.5 113.001 -72.5s94.334 24.5 113.001 73.5s28 139.833 28 272.5
v790z" />
    <glyph glyph-name="P" unicode="P" horiz-adv-x="890" 
d="M144 1760l354 0.000976562c156 0 254 -64.667 294 -194c25.333 -81.333 38 -176.333 38 -285s-3 -190.334 -9 -245.001c-13.333 -120 -45 -207.5 -95 -262.5s-126 -82.5 -228 -82.5h-147v-691h-207v1760zM623 1263c0 120.667 -9.5 206.334 -28.5 257.001
s-56.5 76 -112.5 76h-131v-733h126c58.667 0 97.667 25.667 117 77s29 147.666 29 288.999v34z" />
    <glyph glyph-name="Q" unicode="Q" horiz-adv-x="944" 
d="M613 1294c0 112.667 -9.00195 192.5 -27.002 239.5s-54.333 70.5 -109 70.5s-92.667 -24 -114 -72s-32 -127 -32 -237v-791c0 -134 9.33301 -225.167 28 -273.5s56.334 -72.5 113.001 -72.5s94.334 24.5 113.001 73.5s28 139.833 28 272.5v790zM123.998 1282
c0 200 36 337.334 108 412.001c56.667 58.667 139 88 247 88c157.333 0 258 -64.667 302 -194c26 -76.667 39 -178.667 39 -306v-776c0 -182.667 -25.667 -316 -77 -400c-30 -48.667 -72.667 -83.334 -128 -104.001l154 -178l-102 -93l-230 250
c-109.333 7.33301 -188.833 51 -238.5 131s-74.5 211.333 -74.5 394v776z" />
    <glyph glyph-name="R" unicode="R" horiz-adv-x="953" 
d="M144 1760l369 -0.000976562c104.667 0 180 -21.667 226 -65s73.667 -117 83 -221c4 -42.667 6 -109.167 6 -199.5s-11.833 -166.166 -35.5 -227.499s-65.5 -101 -125.5 -119c44 -7.33301 77.333 -30.5 100 -69.5s38.667 -101 48 -186s14 -211.333 14 -379
s5.33301 -265.5 16 -293.5h-206c-10.667 21.333 -16 219 -16 593c0 126 -12.333 199.167 -37 219.5s-62 30.5 -112 30.5l-123 7v-850h-207v1760zM623 1329c0 135.333 -12.167 213.668 -36.5 235.001s-59.5 32 -105.5 32h-130v-594h132c40 0 69.333 7.66699 88 23
s32 44.666 40 87.999s12 111.333 12 204v12z" />
    <glyph glyph-name="S" unicode="S" horiz-adv-x="872" 
d="M124 1215c-12 42 -17.999 92.3301 -17.999 150.997c0 127.333 23.5 228.5 70.5 303.5s136.833 112.5 269.5 112.5c170.667 0 271.334 -82 302.001 -246c13.333 -70.667 20 -159.667 20 -267v-104h-198v118c0 112 -5.66699 187.333 -17 226s-25.333 64.334 -42 77.001
s-38.334 19 -65.001 19c-50 0 -86 -18.333 -108 -55s-33 -91 -33 -163s10 -124.667 30 -158s44.667 -65.166 74 -95.499s45.666 -47.5 48.999 -51.5l120 -127c144 -150.667 216 -319.334 216 -506.001c0 -152 -23.5 -268.167 -70.5 -348.5s-136.5 -120.5 -268.5 -120.5
c-159.333 0 -260.333 70 -303 210c-24.667 78.667 -37 181.667 -37 309v10v171h201v-179c0 -128.667 9.33301 -218.167 28 -268.5s53.334 -75.5 104.001 -75.5s85.667 11.833 105 35.5s30.5 59.834 33.5 108.501s4.5 103.334 4.5 164.001c0 122 -53.667 236.667 -161 344
l-115 115c-102.667 105.333 -166.334 202.333 -191.001 291z" />
    <glyph glyph-name="T" unicode="T" horiz-adv-x="637" 
d="M28 1760h581v-172h-181v-1588h-206v1588h-194v172z" />
    <glyph glyph-name="U" unicode="U" horiz-adv-x="963" 
d="M623 1760h205.999v-1308c0 -164.667 -25.833 -284.667 -77.5 -360s-141.167 -113 -268.5 -113s-217.333 37.667 -270 113s-79 195.333 -79 360v1308h207v-1303c0 -117.333 4.83301 -187.5 14.5 -210.5s19.834 -41.167 30.501 -54.5c18.667 -25.333 51 -38 97 -38
s80 14 102 42s33.833 69.667 35.5 125s2.5 100.333 2.5 135v1304z" />
    <glyph glyph-name="V" unicode="V" horiz-adv-x="921" 
d="M666 1760h195l-267 -1760h-241l-293 1760h197l117 -745l100 -655h4l87 655z" />
    <glyph glyph-name="W" unicode="W" horiz-adv-x="1359" 
d="M1106 1760h190l-208 -1760h-205l-188 1299l-199 -1299h-200l-232 1760h191l150 -1349l200 1349h169l205 -1349z" />
    <glyph glyph-name="X" unicode="X" horiz-adv-x="814" 
d="M567 1760h186l-244 -903l252 -857h-180l-179 608l-158 -608h-189l252 932l-244 828h181l172 -586z" />
    <glyph glyph-name="Y" unicode="Y" horiz-adv-x="836" 
d="M614 1760h203l-284 -1021v-739h-207v739l-306 1021h201l208 -720h4z" />
    <glyph glyph-name="Z" unicode="Z" horiz-adv-x="764" 
d="M148 1760h544v-158l-363 -1430h355v-172h-569v179l363 1409h-330v172z" />
    <glyph glyph-name="bracketleft" unicode="[" horiz-adv-x="764" 
d="M217 1761h415v-160h-209v-1441h209v-160h-415v1761z" />
    <glyph glyph-name="backslash" unicode="\" horiz-adv-x="868" 
d="M115 1761h182l410 -1761h-181z" />
    <glyph glyph-name="bracketright" unicode="]" horiz-adv-x="764" 
d="M166 1761h415v-1761h-415v160h210v1441h-210v160z" />
    <glyph glyph-name="asciicircum" unicode="^" horiz-adv-x="1030" 
d="M384 1500h261l241 -923h-201l-170 763l-170 -763h-202z" />
    <glyph glyph-name="underscore" unicode="_" horiz-adv-x="748" 
d="M48 -46h651v-152h-651v152z" />
    <glyph glyph-name="grave" unicode="`" horiz-adv-x="650" 
d="M121 492v211l371 -194v-111z" />
    <glyph glyph-name="a" unicode="a" horiz-adv-x="926" 
d="M586 827c-84 -38 -139.999 -67.332 -167.999 -87.999s-49.167 -44.834 -63.5 -72.501s-21.5 -73.167 -21.5 -136.5v-139c0 -87.333 7.66699 -148.833 23 -184.5s41.666 -53.5 78.999 -53.5s69.333 10.833 96 32.5s45 45.167 55 70.5v571zM145.001 1066
c0 181.333 28.332 302 84.999 362s137.334 90 242.001 90s180.5 -25.333 227.5 -76s75.833 -132 86.5 -244c4.66699 -48 7 -107 7 -177v-1021h-206v130c-10.667 -36 -34 -68.833 -70 -98.5s-80.667 -44.5 -134 -44.5c-170 0 -255.667 132.667 -257 398v146
c0 86 23.5 159.5 70.5 220.5s176.833 130.5 389.5 208.5v116c0 128.667 -9.33301 206 -28 232s-50.5 39 -95.5 39s-75.167 -19.667 -90.5 -59s-23 -110.333 -23 -213v-52h-204v43z" />
    <glyph glyph-name="b" unicode="b" horiz-adv-x="937" 
d="M147 1779h205v-398c10.667 38.667 34.334 71.167 71.001 97.5s76 39.5 118 39.5c123.333 0 202.666 -61 237.999 -183c23.333 -78.667 35 -177 35 -295v-577c0 -185.333 -25.333 -314.333 -76 -387c-41.333 -59.333 -102 -89 -182 -89
c-97.333 0 -165.333 46.333 -204 139v-126h-205v1779zM608 1067c0 99.333 -4.5 161.666 -13.5 186.999s-19.5 47 -31.5 65s-33 27 -63 27c-29.333 0 -52 -3.33301 -68 -10c-53.333 -24 -80 -114 -80 -270v-608c0 -108.667 9.16699 -186.5 27.5 -233.5s53 -70.5 104 -70.5
s84.5 23.333 100.5 70s24 126.334 24 239.001v604z" />
    <glyph glyph-name="c" unicode="c" horiz-adv-x="880" 
d="M124 1008c0 130 9.8291 225.166 29.4961 285.499s41.834 104.5 66.501 132.5c54 61.333 133.333 92 238 92s180 -26 226 -78c45.333 -52 73.333 -129.333 84 -232c4 -44 6.33301 -96.333 7 -157v-104h-202v132c0 93.333 -3.66699 154.333 -11 183
c-26.667 42.667 -58.667 69.334 -96 80.001c-65.333 0 -105.666 -32.667 -120.999 -98c-10 -41.333 -15 -98.333 -15 -171v-638c0 -102.667 7.83301 -174.5 23.5 -215.5s45.834 -61.5 90.501 -61.5s77.334 14.5 98.001 43.5s31 105.5 31 229.5v145h202v-97
c0 -204.667 -27 -338.667 -81 -402s-136.333 -95 -247 -95c-174.667 0 -277 93.333 -307 280c-10.667 68.667 -16 150 -16 244v502z" />
    <glyph glyph-name="d" unicode="d" horiz-adv-x="938" 
d="M586 1779l205.999 -0.000976562v-1779h-206v126c-37.333 -92.667 -106.333 -139 -207 -139c-138 0 -219 91 -243 273c-8 60.667 -12 134 -12 220v567c0 180.667 29.333 308.334 88 383.001c46.667 58.667 112.667 88 198 88c37.333 0 71.833 -11 103.5 -33
s55.834 -50.333 72.501 -85v379zM586.999 1050c0 105.333 -8.83301 181.001 -26.5 227.001s-51.667 69 -102 69s-84.333 -23.167 -102 -69.5s-26.5 -123.5 -26.5 -231.5v-606c0 -146.667 19.333 -235.334 58 -266.001c16 -12.667 38.667 -19 68 -19s53.333 8 72 24
c39.333 33.333 59 123.333 59 270v602z" />
    <glyph glyph-name="e" unicode="e" horiz-adv-x="893" 
d="M124 1035c0 189.333 33.9971 321 101.997 395c53.333 58.667 132 88 236 88c150.667 0 245.334 -65 284.001 -195c21.333 -73.333 32 -172.333 32 -297v-283h-448v-299c0 -130 10.333 -211 31 -243s53.334 -48 98.001 -48s74.5 18.667 89.5 56s22.833 77.833 23.5 121.5
s1 80.5 1 110.5v121h201v-64c0 -159.333 -11.167 -271 -33.5 -335s-56.166 -110.167 -101.499 -138.5s-101.5 -42.5 -168.5 -42.5s-120.667 8.5 -161 25.5s-72.333 39.5 -96 67.5s-44.5 72.667 -62.5 134s-27 160 -27 296v530zM572.997 1073
c0 106.667 -3.83301 171 -11.5 193s-17.5 41.333 -29.5 58s-33.667 25 -65 25c-60 0 -98 -25.167 -114 -75.5s-24 -119.5 -24 -207.5v-184h244v191z" />
    <glyph glyph-name="f" unicode="f" horiz-adv-x="623" 
d="M200 1515c0 180.667 77.333 271 232 271c57.333 0 107 -7 149 -21v-143c-26.667 4 -55.667 6 -87 6s-54 -8.5 -68 -25.5s-21 -43.5 -21 -79.5v-81h176v-151h-176v-1291h-205v1291h-129v151h129v73z" />
    <glyph glyph-name="g" unicode="g" horiz-adv-x="929" 
d="M400 1518c94 0 155 -42.668 183 -128.001v110h205v-1360c0 -178.667 -67.333 -293 -202 -343c-46.667 -17.333 -100.667 -26 -162 -26c-122.667 0 -224.334 32 -305.001 96l74 140c72.667 -49.333 149.667 -74 231 -74c54 0 94 17 120 51s39 79.667 39 137v143
c-18 -46.667 -43 -79 -75 -97c-33.333 -18 -74.666 -27 -123.999 -27c-100 0 -168.667 42.333 -206 127s-56 198.334 -56 341.001v430c0 320 92.667 480 278 480zM583 1068c0 97.333 -8.83203 168.166 -26.499 212.499s-48.667 66.5 -93 66.5s-75.5 -12.667 -93.5 -38
s-29.5 -57 -34.5 -95s-7.5 -86 -7.5 -144v-467c0 -106 9.66699 -182.5 29 -229.5s55.666 -70.5 108.999 -70.5c28 0 50 8 66 24c33.333 32.667 50.333 125.334 51 278.001v463z" />
    <glyph glyph-name="h" unicode="h" horiz-adv-x="969" 
d="M147 1779h205v-438c14 48.667 43 90.5 87 125.5s99.5 52.5 166.5 52.5s121.5 -27.167 163.5 -81.5s63 -134.833 63 -241.5v-1196h-205v1179c0 108.667 -41 163 -123 163c-44.667 0 -81.167 -15.833 -109.5 -47.5s-42.5 -78.5 -42.5 -140.5v-1154h-205v1779z" />
    <glyph glyph-name="i" unicode="i" horiz-adv-x="503" 
d="M150 1500h205v-1500h-205v1500zM150 1826h206v-188h-206v188z" />
    <glyph glyph-name="j" unicode="j" horiz-adv-x="533" 
d="M80 -56c9.33301 -1.33301 19 -1.99902 29 -1.99902s17.667 0.333008 23 1c33.333 3.33301 50 25.666 50 66.999v1490h205v-1480c0 -78 -16.167 -135 -48.5 -171s-71.5 -55.333 -117.5 -58c-14.667 -1.33301 -40.167 -2 -76.5 -2s-59.833 3.66699 -70.5 11v144h6z
M180 1826h206v-188h-206v188z" />
    <glyph glyph-name="k" unicode="k" horiz-adv-x="866" 
d="M147 1779h205v-992l295 713h207l-316 -741l333 -759h-211l-308 730v-730h-205v1779z" />
    <glyph glyph-name="l" unicode="l" horiz-adv-x="501" 
d="M148 1779h205v-1779h-205v1779z" />
    <glyph glyph-name="m" unicode="m" horiz-adv-x="1432" 
d="M352 1344c14 50.667 41.6689 92.5 83.002 125.5s91.666 49.5 150.999 49.5c105.333 0 176 -50.667 212 -152c25.333 46.667 59.833 83.667 103.5 111s93.834 41 150.501 41c79.333 0 139.666 -28.333 180.999 -85s62 -140 62 -250v-1184h-205v1190
c0 101.333 -40 152 -120 152c-90.667 0 -139.334 -46.333 -146.001 -139v-1203h-206v1191c0 100.667 -39.333 151 -118 151c-48 0 -84.667 -15.5 -110 -46.5s-38 -73.5 -38 -127.5v-1168h-205v1500h205v-156z" />
    <glyph glyph-name="n" unicode="n" horiz-adv-x="970" 
d="M352 1341c13.333 48.667 42.498 90.5 87.498 125.5s101 52.5 168 52.5s121.333 -27.167 163 -81.5s62.5 -134.833 62.5 -241.5v-1196h-205v1195c0 50.667 -11.667 88.667 -35 114s-55.666 38 -96.999 38s-75.666 -14.333 -102.999 -43s-41 -71.667 -41 -129v-1175h-205
v1500h205v-159z" />
    <glyph glyph-name="o" unicode="o" horiz-adv-x="914" 
d="M124 1027c0 243.333 56.001 394.999 168.001 454.999c45.333 24 98 36 158 36c156.667 0 256.667 -63 300 -189c26.667 -79.333 40 -180 40 -302v-531c0 -210.667 -28.333 -349 -85 -415s-138.667 -99 -246 -99c-156.667 0 -256.334 66.667 -299.001 200
c-24 76.667 -36 181.334 -36 314.001v531zM584.001 1068c0 142.667 -20.334 229.334 -61.001 260.001c-16.667 12.667 -38.334 19 -65.001 19c-54 0 -88.833 -24.333 -104.5 -73s-23.5 -117.334 -23.5 -206.001v-629c0 -147.333 20.667 -236.333 62 -267
c16.667 -12.667 37.334 -19 62.001 -19h4c52.667 0 86.834 24.833 102.501 74.5s23.5 120.167 23.5 211.5v629z" />
    <glyph glyph-name="p" unicode="p" horiz-adv-x="938" 
d="M352 1375c18.667 46 46.998 80.5 84.998 103.5s78.333 34.5 121 34.5c119.333 0 195 -62 227 -186c20 -77.333 30 -176.333 30 -297v-543c0 -199.333 -25.167 -333.333 -75.5 -402s-121.166 -103 -212.499 -103c-36.667 0 -70.667 11.333 -102 34
s-55.666 50.667 -72.999 84v-374h-205v1774h205v-125zM608.998 1066l0.000976562 19.001v17v15v13v11c0 51.333 -4.33301 88.666 -13 111.999c-9.33301 26 -18.333 45 -27 57c-17.333 24 -42.5 36 -75.5 36s-58.833 -6.33301 -77.5 -19
c-42.667 -28.667 -64 -115.667 -64 -261v-615c0 -106 9.16699 -182 27.5 -228s52.666 -69 102.999 -69s84 23.333 101 70s25.5 125 25.5 235v607z" />
    <glyph glyph-name="q" unicode="q" horiz-adv-x="931" 
d="M380 1513c99.333 0 167.668 -43.334 205.001 -130.001v117h205v-1774h-205v378c-14.667 -34.667 -37.834 -63.667 -69.501 -87s-68.167 -35 -109.5 -35s-79.333 8.33301 -114 25c-64.667 31.333 -108.834 87.333 -132.501 168s-35.5 182.334 -35.5 305.001v550
c0 188 24.667 318.667 74 392c40.667 60 101.334 90.333 182.001 91zM584.002 1050c0 106 -9.33301 181.833 -28 227.5s-53 68.5 -103 68.5s-83.167 -22.833 -99.5 -68.5s-24.5 -123.5 -24.5 -233.5v-607c0 -120 9.33301 -197.167 28 -231.5s46.167 -51.5 82.5 -51.5
s63.833 6.66699 82.5 20c41.333 29.333 62 116.333 62 261v615z" />
    <glyph glyph-name="r" unicode="r" horiz-adv-x="651" 
d="M608 1518c2.66699 0 4 -43.333 4 -130l-1 -44c-120 0 -206 -41.667 -258 -125v-1219h-206v1500h206v-167c17.333 58.667 47.833 104.167 91.5 136.5s98.167 48.5 163.5 48.5z" />
    <glyph glyph-name="s" unicode="s" horiz-adv-x="805" 
d="M745 344c-0.666992 -242.667 -107.668 -364 -321.001 -364c-108 0 -189 34.333 -243 103s-81 179 -81 331v113h199v-112c0 -173.333 39.333 -260 118 -260c43.333 0 74.5 14 93.5 42s28.5 76.667 28.5 146c0 108.667 -50 212 -150 310
c-7.33301 7.33301 -24.666 23.833 -51.999 49.5l-54 51.5c-130 124 -195 261 -195 411c0 118.667 28 207.167 84 265.5s135.667 87.5 239 87.5c70 0 127 -14.333 171 -43c92 -60 138 -201.667 138 -425v-72h-195v104c0 87.333 -8.5 152.5 -25.5 195.5
s-46.167 64.5 -87.5 64.5s-72.333 -13 -93 -39s-31 -70 -31 -132c0 -97.333 45.667 -191.333 137 -282l108 -101c141.333 -135.333 212 -283.333 212 -444z" />
    <glyph glyph-name="t" unicode="t" horiz-adv-x="612" 
d="M183 1760l205.001 0.000976562v-272h162v-152h-162v-1095c0 -38.667 9 -62.834 27 -72.501s63.667 -14.5 137 -14.5v-163h-141c-94.667 0 -156.334 17.167 -185.001 51.5s-43 94.5 -43 180.5v1113h-137v152h137v272z" />
    <glyph glyph-name="u" unicode="u" 
d="M616 1500h206v-1500h-206v153c-16 -50.667 -43.5 -92.167 -82.5 -124.5s-91.333 -48.5 -157 -48.5s-122 27.167 -169 81.5s-70.5 137.833 -70.5 250.5v1188h205v-1165c0 -118 43 -177 129 -177c48 0 84.167 16.667 108.5 50s36.5 77.333 36.5 132v1160z" />
    <glyph glyph-name="v" unicode="v" horiz-adv-x="753" 
d="M521 1500h190l-215 -1500h-241l-213 1500h191l108 -845l35 -335h19l29 336z" />
    <glyph glyph-name="w" unicode="w" horiz-adv-x="1160" 
d="M940 1500h168l-181 -1500h-189l-151 1174l-180 -1174h-181l-175 1500h172l79 -835l23 -287h9l38 288l119 834h179l119 -812l41 -310h8l24 311z" />
    <glyph glyph-name="x" unicode="x" horiz-adv-x="743" 
d="M43 1500h181l158 -479l140 479h186l-242 -734l252 -766h-191l-164 510l-151 -510h-186l252 773z" />
    <glyph glyph-name="y" unicode="y" horiz-adv-x="791" 
d="M558 1500l198.002 0.000976562l-249 -1529c-12 -83.333 -27.333 -137.666 -46 -162.999s-39.334 -41.5 -62.001 -48.5s-52.334 -10.5 -89.001 -10.5h-201v155h71c70 0 108.667 8 116 24c6 7.33301 9 21.666 9 42.999s-2.66699 48.666 -8 81.999l-245 1447h199l108 -780
l44 -406h18l39 406z" />
    <glyph glyph-name="z" unicode="z" horiz-adv-x="680" 
d="M101 1500h517v-141l-331 -1184h314v-175h-525v153l330 1170h-305v177z" />
    <glyph glyph-name="braceleft" unicode="{" horiz-adv-x="798" 
d="M587 1781h60v-167c-60.667 0 -99 -10.667 -115 -32s-24 -72 -24 -152v-246c0 -157.333 -13.833 -251.5 -41.5 -282.5s-69.167 -54.833 -124.5 -71.5c55.333 -16.667 92.5 -35.667 111.5 -57s32.833 -51.333 41.5 -90s13 -107.667 13 -207v-246c0 -80 8 -130.667 24 -152
s54.333 -32 115 -32v-167h-60c-106.667 0 -180.5 24 -221.5 72s-61.5 136.667 -61.5 266v275c0 98 -7.66699 160.5 -23 187.5s-54 40.5 -116 40.5v220c62 0 100.667 13.5 116 40.5s23 89.5 23 187.5v275c0 129.333 20.5 218 61.5 266s114.833 72 221.5 72z" />
    <glyph glyph-name="bar" unicode="|" horiz-adv-x="537" 
d="M175 1877h197v-1961h-197v1961z" />
    <glyph glyph-name="braceright" unicode="}" horiz-adv-x="798" 
d="M165 1781h60c106.667 0 180.5 -24 221.5 -72s61.5 -136.667 61.5 -266v-275c0 -98 7.66699 -160.5 23 -187.5s54 -40.5 116 -40.5v-220c-62 0 -100.667 -13.5 -116 -40.5s-23 -89.5 -23 -187.5v-275c0 -129.333 -20.5 -218 -61.5 -266s-114.833 -72 -221.5 -72h-60v167
c60.667 0 99 10.667 115 32s24 72 24 152v246c0 157.333 13.833 251.5 41.5 282.5s69.167 54.833 124.5 71.5c-55.333 16.667 -92.5 35.667 -111.5 57s-32.833 51.333 -41.5 90s-13 107.667 -13 207v246c0 80 -8 130.667 -24 152s-54.333 32 -115 32v167z" />
    <glyph glyph-name="asciitilde" unicode="~" horiz-adv-x="1117" 
d="M341 1134c38 0 107.668 -14.667 209.001 -44c99.333 -28.667 155 -43 167 -43h1c51.333 0 88.333 38 111 114l164 -42c-19.333 -76 -49.666 -142.833 -90.999 -200.5s-84.333 -86.5 -129 -86.5s-116.834 15.333 -216.501 46s-167.334 46 -203.001 46
s-66.834 -31 -93.501 -93l-149 78c52.667 150 129.334 225 230.001 225z" />
    <glyph glyph-name="uni00A0" unicode="&#xa0;" horiz-adv-x="503" 
 />
    <glyph glyph-name="exclamdown" unicode="&#xa1;" horiz-adv-x="545" 
d="M410 -221h-235l75 1365h84zM405 1311h-222v228h222v-228z" />
    <glyph glyph-name="cent" unicode="&#xa2;" horiz-adv-x="788" 
d="M124 1008c0 130 9.82715 225.166 29.4941 285.499s41.834 104.5 66.501 132.5c42.667 48.667 103.334 78 182.001 88v253h113v-252c75.333 -8 134 -35.333 176 -82c56 -62.667 84 -190 84 -382v-104h-202v132c0 93.333 -3.66699 154.333 -11 183
c-26.667 42.667 -58.667 69.334 -96 80.001c-65.333 0 -105.666 -32.667 -120.999 -98c-10 -41.333 -15 -98.333 -15 -171v-638c0 -102.667 7.83301 -174.5 23.5 -215.5s45.834 -61.5 90.501 -61.5s77.334 14.5 98.001 43.5s31 105.5 31 229.5v145h202v-97
c0 -204.667 -28.667 -340.667 -86 -408c-40.667 -48 -98.667 -76.667 -174 -86v-235h-113v235c-89.333 11.333 -154.666 46.333 -195.999 105c-32.667 46.667 -54.5 104.167 -65.5 172.5s-16.5 149.5 -16.5 243.5v502z" />
    <glyph glyph-name="sterling" unicode="&#xa3;" horiz-adv-x="892" 
d="M173 1383c0 265.333 115.667 398.001 347 398.001c109.333 0 190.166 -32.667 242.499 -98s78.5 -166 78.5 -302v-135h-186v147c0 93.333 -11.667 155.333 -35 186s-56.666 46 -99.999 46c-104.667 0 -157 -79.667 -157 -239c0 -109.333 24.667 -253.333 74 -432h350
v-145h-311c10 -64.667 15 -123 15 -175c0 -249.333 -64.667 -406 -194 -470h545v-164h-777v143c82 36 140.333 91.667 175 167s52 182.666 52 321.999c0 60 -5.66699 119 -17 177h-237v145h203c-45.333 166.667 -68 309.667 -68 429z" />
    <glyph glyph-name="currency" unicode="&#xa4;" horiz-adv-x="1159" 
d="M797 1331l86.998 87l150 -149l-90 -90c36 -64.667 54 -136.334 54 -215.001s-18 -150.667 -54 -216l90 -90l-150 -149l-89 88c-61.333 -34.667 -133.333 -52 -216 -52s-154.667 17.667 -216 53l-89 -89l-149 150l91 91c-35.333 65.333 -53 136.833 -53 214.5
s17.333 148.834 52 213.501l-90 90l149 150l87 -88c64.667 36.667 137.334 55 218.001 55s153.334 -18 218.001 -54zM755.498 779c45 50.667 67.499 113.333 67.499 188s-22.167 136.167 -66.5 184.5s-103 72.5 -176 72.5s-132 -25 -177 -75s-67.5 -111.833 -67.5 -185.5
s22.333 -135.5 67 -185.5s103.334 -75 176.001 -75s131.5 25.333 176.5 76z" />
    <glyph glyph-name="yen" unicode="&#xa5;" horiz-adv-x="843" 
d="M614 1760h203l-268 -962h214v-116h-230v-175h230v-116h-230v-391h-207v391h-241v116h241v175h-241v116h223l-288 962h201l208 -720h4z" />
    <glyph glyph-name="brokenbar" unicode="&#xa6;" horiz-adv-x="530" 
d="M122 1727h197v-830h-197v830zM122 690h197v-808h-197v808z" />
    <glyph glyph-name="section" unicode="&#xa7;" horiz-adv-x="805" 
d="M88 1487c0 88.667 29.667 159.997 89 213.997s136.333 81 231 81s170.167 -35.667 226.5 -107s84.5 -165.333 84.5 -282v-61h-194v86c0 76.667 -13.167 132.334 -39.5 167.001s-58.333 52 -96 52s-67.334 -13.667 -89.001 -41s-32.5 -60.666 -32.5 -99.999
s15 -81.166 45 -125.499s67.333 -84.833 112 -121.5c213.333 -167.333 320 -317 320 -449c0 -51.333 -16.167 -91.833 -48.5 -121.5s-69.166 -57.167 -110.499 -82.5c106 -90 159 -195 159 -315c0 -90.667 -29.333 -163.5 -88 -218.5s-137 -82.5 -235 -82.5
s-176.167 30.667 -234.5 92s-87.5 150.666 -87.5 267.999v94h199v-92c0 -73.333 9.16699 -127.833 27.5 -163.5s51.5 -53.5 99.5 -53.5c88.667 0 133 51.333 133 154v2v3c0 87.333 -31 162.333 -93 225c-32 32.667 -80.667 73 -146 121
c-65.333 46.667 -112 83.334 -140 110.001c-62 58.667 -93 128.667 -93 210c0 50.667 13.333 95 40 133s65 67.667 115 89c-46 41.333 -83.167 91 -111.5 149s-42.5 113.333 -42.5 166zM339 1074l-1.00098 0.998047c-54 -31.333 -81 -73.666 -81 -126.999
c0 -32 17.5 -66 52.5 -102s103.167 -93.667 204.5 -173c49.333 33.333 74 71 74 113s-18.667 84.333 -56 127s-101.666 96.334 -192.999 161.001z" />
    <glyph glyph-name="dieresis" unicode="&#xa8;" horiz-adv-x="976" 
d="M615 596h230v-178h-230v178zM131 596h230v-178h-230v178z" />
    <glyph glyph-name="copyright" unicode="&#xa9;" horiz-adv-x="1466" 
d="M527 1089c0 70 15.501 123.499 46.501 160.499s83.5 55.5 157.5 55.5s127.333 -15.333 160 -46s49 -85.334 49 -164.001v-118h-125v107c0 47.333 -7.16699 76.666 -21.5 87.999s-29.5 17 -45.5 17c-16 0.666992 -28 0.333984 -36 -0.999023
c-40 -5.33301 -60 -35.666 -60 -90.999v-481c0 -31.333 7.83301 -52.5 23.5 -63.5s36.167 -16.5 61.5 -16.5s44.666 5.33301 57.999 16s20 32 20 64v149h129v-142c0 -66.667 -16 -116.5 -48 -149.5s-84.167 -49.5 -156.5 -49.5s-125.833 18.333 -160.5 55
s-52 86.334 -52 149.001v461zM84.001 861.999c0 122.667 28.667 234.167 86 334.5s136.166 179.166 236.499 236.499s211.833 86 334.5 86s234.167 -28.667 334.5 -86s179.166 -136.166 236.499 -236.499s86 -211.833 86 -334.5s-28.667 -234.167 -86 -334.5
s-136.166 -179.166 -236.499 -236.499s-211.833 -86 -334.5 -86s-234.167 28.667 -334.5 86s-179.166 136.166 -236.499 236.499s-86 211.833 -86 334.5zM741.001 1390c-66.667 0 -128.334 -9.83301 -185.001 -29.5s-105.167 -46.5 -145.5 -80.5s-74.5 -73.5 -102.5 -118.5
s-48.833 -92.833 -62.5 -143.5s-20.5 -102.834 -20.5 -156.501s6.66699 -105.834 20 -156.501s34.166 -98.5 62.499 -143.5s62.5 -84.333 102.5 -118s88.5 -60.334 145.5 -80.001s118.833 -29.5 185.5 -29.5s128.334 9.83301 185.001 29.5s105.167 46.5 145.5 80.5
s74.5 73.5 102.5 118.5s48.833 92.833 62.5 143.5s20.5 102.834 20.5 156.501s-6.66699 105.834 -20 156.501s-34.166 98.5 -62.499 143.5s-62.5 84.333 -102.5 118s-88.5 60.334 -145.5 80.001s-118.833 29.5 -185.5 29.5z" />
    <glyph glyph-name="ordfeminine" unicode="&#xaa;" horiz-adv-x="927" 
d="M216 1246c0 144.667 22.499 241.167 67.499 289.5s110.5 72.5 196.5 72.5c120.667 0 196.334 -49.333 227.001 -148c18 -58 27 -141.333 27 -250v-817h-164v100c-7.33301 -26 -25.833 -51 -55.5 -75s-65.834 -36 -108.501 -36c-135.333 0 -203.666 106 -204.999 318v118
c0 66.667 18 124.5 54 173.5s125.667 100.5 269 154.5c25.333 9.33301 40.333 15 45 17v68c0 94 -4 154.333 -12 181c-12 39.333 -38.5 59 -79.5 59s-67.667 -15.5 -80 -46.5s-18.5 -87.5 -18.5 -169.5v-44h-163v35zM568.999 598l0.000976562 453
c-46.667 -20.667 -81 -37 -103 -49s-41.833 -27 -59.5 -45s-28.834 -37.5 -33.501 -58.5s-7 -49.167 -7 -84.5v-108c0 -70 6.16699 -119.333 18.5 -148s33.5 -43 63.5 -43s55.667 8.66699 77 26s36 36.333 44 57z" />
    <glyph glyph-name="guillemotleft" unicode="&#xab;" horiz-adv-x="1304" 
d="M620 839l478 271v-207l-312 -154l312 -163v-214l-478 285v182zM82 839l478 271v-207l-312 -154l312 -163v-214l-478 285v182z" />
    <glyph glyph-name="logicalnot" unicode="&#xac;" horiz-adv-x="947" 
d="M97 979h696v-540h-191v357h-505v183z" />
    <glyph glyph-name="uni00AD" unicode="&#xad;" horiz-adv-x="696" 
d="M90 741h516v-168h-516v168z" />
    <glyph glyph-name="registered" unicode="&#xae;" horiz-adv-x="1502" 
d="M94 862c0 122.667 28.667 234.167 86 334.5s136.166 179.166 236.499 236.499s211.833 86 334.5 86s234.167 -28.667 334.5 -86s179.166 -136.166 236.499 -236.499s86 -211.833 86 -334.5s-28.667 -234.167 -86 -334.5s-136.166 -179.166 -236.499 -236.499
s-211.833 -86 -334.5 -86s-234.167 28.667 -334.5 86s-179.166 136.166 -236.499 236.499s-86 211.833 -86 334.5zM751 1390c-194 0 -338.332 -75.999 -432.999 -227.999c-55.333 -88 -83 -188 -83 -300c0 -174.667 61.667 -314 185 -418
c86.667 -72.667 197 -109.334 331 -110.001c161.333 0 287.666 52 378.999 156s137 228.333 137 373c0 174 -61.667 313 -185 417c-86.667 73.333 -197 110 -331 110zM946.001 1073l0.000976562 -27c0 -47.333 -3.33301 -76.333 -10 -87s-14.834 -21.5 -24.501 -32.5
s-30.834 -20.167 -63.501 -27.5c30 -2.66699 52.667 -13 68 -31c15.333 -18.667 23 -48.667 23 -90v-348h-128v332c0 29.333 -7.16699 51 -21.5 65s-44.5 21 -90.5 21v-418h-132v852h211c68.667 0 113.834 -15.5 135.501 -46.5s32.5 -85.167 32.5 -162.5zM823.002 1010
c1.33301 12.667 2 38 2 76s-7.33301 63.833 -22 77.5s-49 20.5 -103 20.5v-239c30.667 0 54.334 1.66699 71.001 5s29.167 11 37.5 23s13.166 24.333 14.499 37z" />
    <glyph glyph-name="macron" unicode="&#xaf;" horiz-adv-x="696" 
d="M90 544h501v-132h-501v132z" />
    <glyph glyph-name="degree" unicode="&#xb0;" horiz-adv-x="915" 
d="M104 1269c0 108 35.499 190.668 106.499 248.001s153.333 86 247 86s176 -28.667 247 -86s106.5 -140 106.5 -248c0 -53.333 -10.167 -101.833 -30.5 -145.5s-47.166 -78.834 -80.499 -105.501c-68.667 -56 -149.5 -84 -242.5 -84s-175.167 28.833 -246.5 86.5
s-107 140.5 -107 248.5zM627.999 1151c19.333 32 29 68.334 29 109.001c0 118 -52.333 190.667 -157 218c-14 4 -28 6 -42 6l-42 -6c-104.667 -27.333 -157 -98.333 -157 -213c0 -42.667 9.66699 -80.334 29 -113.001c37.333 -64 94 -96 170 -96h2
c74.667 0 130.667 31.667 168 95z" />
    <glyph glyph-name="plusminus" unicode="&#xb1;" horiz-adv-x="854" 
d="M353 1152h148v-246h228v-140h-228v-250h-148v250h-224v140h224v246zM165 337h516v-149h-516v149z" />
    <glyph glyph-name="uni00B2" unicode="&#xb2;" horiz-adv-x="846" 
d="M222 1340c0 164 13 272.333 39 325s63 86.334 111 101.001c26.667 8 58.667 12.333 96 13c141.333 0 212 -117.333 212 -352c0 -118 -30 -234.333 -90 -349l-81 -146c-69.333 -120.667 -112 -230.334 -128 -329.001h283v-113h-438v67c0 54 37 164.167 111 330.5
s122.333 263.5 145 291.5c36 66 54 153 54 261s-12.667 173.667 -38 197c-10.667 10 -24.667 15 -42 15s-32 -5.33301 -44 -16c-28 -24.667 -42 -94 -42 -208v-166h-148v78z" />
    <glyph glyph-name="uni00B3" unicode="&#xb3;" horiz-adv-x="868" 
d="M201 1467c0 106 18.166 184.167 54.499 234.5s96.5 75.5 180.5 75.5s145.667 -25.833 185 -77.5s59 -129.167 59 -232.5c0 -144.667 -40 -231.667 -120 -261c81.333 -36 122 -134.667 122 -296c0 -114.667 -20 -199.834 -60 -255.501s-102.833 -83.5 -188.5 -83.5
s-146.5 26.667 -182.5 80s-54 137 -54 251v54h142v-54c0 -83.333 6 -139.666 18 -168.999s38 -44 78 -44s66.833 16.333 80.5 49s20.5 91.667 20.5 177s-9.83301 145.5 -29.5 180.5s-54.5 52.5 -104.5 52.5h-29v113h28c34 0.666992 60 6 78 16c37.333 20.667 56 76 56 166
s-8.5 148.333 -25.5 175s-41.667 40 -74 40s-55.666 -14 -69.999 -42s-21.5 -78.667 -21.5 -152v-25h-143v28z" />
    <glyph glyph-name="acute" unicode="&#xb4;" horiz-adv-x="650" 
d="M100 1955l419 174v-199l-419 -86v111z" />
    <glyph glyph-name="paragraph" unicode="&#xb6;" horiz-adv-x="1119" 
d="M654 1761h303v-1761h-178v1575h-143v-1575h-178v1135c-215.333 24 -323 131 -323 321c0 60.667 9 110.5 27 149.5s48.667 70.167 92 93.5c76.667 41.333 210 62 400 62z" />
    <glyph glyph-name="periodcentered" unicode="&#xb7;" horiz-adv-x="480" 
d="M148 977h200v-208h-200v208z" />
    <glyph glyph-name="cedilla" unicode="&#xb8;" horiz-adv-x="1015" 
d="M351 -501c154 0 231 47 231 141c0 42.667 -15.5 78.167 -46.5 106.5s-68.833 47.5 -113.5 57.5l40 196h69l12 -144c135.333 -56 203 -140.333 203 -253c0 -55.333 -25.833 -105.833 -77.5 -151.5s-118.5 -68.5 -200.5 -68.5c-38 0 -77 6 -117 18v98z" />
    <glyph glyph-name="uni00B9" unicode="&#xb9;" horiz-adv-x="627" 
d="M302 1759l107.002 -0.000976562v-1272h-156v1070c-40 -38.667 -94.333 -58 -163 -58v101c43.333 4.66699 85.666 21.334 126.999 50.001s69.666 65 84.999 109z" />
    <glyph glyph-name="ordmasculine" unicode="&#xba;" horiz-adv-x="908" 
d="M200 1213c0 195.333 45.332 317 135.999 365c36 19.333 78.667 29 128 29c128.667 0 209.334 -50.667 242.001 -152c20.667 -63.333 31 -144 31 -242v-424c0 -167.333 -22.833 -277.833 -68.5 -331.5s-111.5 -80.5 -197.5 -80.5c-126 0 -206.333 53.333 -241 160
c-20 62.667 -30 146.667 -30 252v424zM570.999 1246c0 75.333 -6.83105 131.499 -20.498 168.499s-40.834 55.5 -81.501 55.5s-68 -18.333 -82 -55s-21 -93 -21 -169v-503c0 -77.333 7.16699 -134.833 21.5 -172.5s42.166 -56.5 83.499 -56.5c51.333 0 82.333 35.333 93 106
c4.66699 28.667 7 64.334 7 107.001v16v503z" />
    <glyph glyph-name="guillemotright" unicode="&#xbb;" horiz-adv-x="1304" 
d="M710 903v207l478 -271v-182l-478 -285v214l312 163zM172 903v207l478 -271v-182l-478 -285v214l312 163z" />
    <glyph glyph-name="onequarter" unicode="&#xbc;" horiz-adv-x="1535" 
d="M936 1768h153l-479 -1768h-153zM297 1728h100.001v-1246h-147v1051c-36.667 -38 -88.334 -57 -155.001 -57v96c40.667 4.66699 80.5 21 119.5 49s66.5 63.667 82.5 107zM1160 1147h156v-822h90v-106h-90v-219h-126v219h-281v91zM1190 325v603l-162 -603h162z" />
    <glyph glyph-name="onehalf" unicode="&#xbd;" horiz-adv-x="1620" 
d="M936 1768h153l-479 -1768h-153zM297 1728h100.001v-1246h-147v1051c-36.667 -38 -88.334 -57 -155.001 -57v96c40.667 4.66699 80.5 21 119.5 49s66.5 63.667 82.5 107zM1092 834c0 161.333 12.666 267.832 37.999 319.499s61.333 84.5 108 98.5c26.667 8 58 12 94 12
c137.333 0 206 -115 206 -345c0 -115.333 -30 -229.666 -90 -342.999c-25.333 -49.333 -51.333 -97.333 -78 -144c-66.667 -118 -108.334 -225.667 -125.001 -323h277v-108h-426v65c0 35.333 19.167 101.5 57.5 198.5s77.333 186.5 117 268.5s64.834 129.333 75.501 142
c35.333 63.333 53 157 53 281s-26.667 186 -80 186c-17.333 0 -31.666 -5 -42.999 -15c-27.333 -24 -41 -93 -41 -207v-163h-143v77z" />
    <glyph glyph-name="threequarters" unicode="&#xbe;" horiz-adv-x="1555" 
d="M994 1768h154l-480 -1768h-153zM123 1446c0 102.667 17.1641 178.503 51.4971 227.503s90.833 73.5 169.5 73.5s136.334 -24.833 173.001 -74.5s55 -125.167 55 -226.5c0 -141.333 -38 -226.333 -114 -255c78 -35.333 117 -131.666 117 -288.999
c0 -110.667 -18.833 -193 -56.5 -247s-96.5 -81 -176.5 -81s-137.167 26 -171.5 78s-51.5 133.333 -51.5 244v50h132v-50c0 -83.333 5.66699 -139.166 17 -167.499s36.5 -42.5 75.5 -42.5s65.167 16.167 78.5 48.5s20 90.166 20 173.499s-9.66699 142.166 -29 176.499
s-52.666 51.5 -99.999 51.5h-28v111h26c32.667 0.666992 57.667 5.66699 75 15c36 19.333 54 73.166 54 161.499s-8.16699 145.666 -24.5 171.999s-40.166 39.5 -71.499 39.5s-53.833 -13.833 -67.5 -41.5s-20.5 -77.834 -20.5 -150.501l-1 -24h-132v27zM1180 1147h156v-822
h90v-106h-90v-219h-126v219h-281v91zM1210 325.003v603l-162 -603h162z" />
    <glyph glyph-name="questiondown" unicode="&#xbf;" horiz-adv-x="1044" 
d="M784 126c0 -106 -6.66699 -177.667 -20 -215c-24.667 -70.667 -57.334 -121.167 -98.001 -151.5s-97 -45.5 -169 -45.5c-111.333 0 -187 32.333 -227 97c-27.333 45.333 -44.5 99 -51.5 161s-10.5 133.167 -10.5 213.5s2.66699 146.5 8 198.5c12 116 40 204 84 264
s112.667 103.333 206 130v224h179v-316c-58 -17.333 -98.5 -34 -121.5 -50s-41 -29.167 -54 -39.5s-24.5 -24.166 -34.5 -41.499c-35.333 -61.333 -54.666 -145 -57.999 -251c-1.33301 -46.667 -2 -111.834 -2 -195.501s4 -140.667 12 -171s31.167 -45.5 69.5 -45.5
s62 15.667 71 47s13.5 98.333 13.5 201v196h203v-210zM682 1197h-177v298h177v-298z" />
    <glyph glyph-name="Agrave" unicode="&#xc0;" horiz-adv-x="939" 
d="M277 1952v211l371 -194v-111zM333 1760h249l291 -1760h-195l-50 336h-319l-46 -336h-197zM332 504h270l-139 930h-3z" />
    <glyph glyph-name="Aacute" unicode="&#xc1;" horiz-adv-x="939" 
d="M269 2007l419 174v-199l-419 -86v111zM333 1760h249l291 -1760h-195l-50 336h-319l-46 -336h-197zM332 504h270l-139 930h-3z" />
    <glyph glyph-name="Acircumflex" unicode="&#xc2;" horiz-adv-x="939" 
d="M343 2146h232l153 -294h-183l-86 205l-86 -205h-184zM333 1760h249l291 -1760h-195l-50 336h-319l-46 -336h-197zM332 504h270l-139 930h-3z" />
    <glyph glyph-name="Atilde" unicode="&#xc3;" horiz-adv-x="939" 
d="M146 1952c18 62 41.6689 103.833 71.002 125.5s62.166 32.5 98.499 32.5s87.333 -12.333 153 -37s105.5 -37 119.5 -37h4c11.333 2 21.166 7.5 29.499 16.5s17.166 27.167 26.499 54.5l123 -28l-9 -37c-16.667 -63.333 -36.667 -105.833 -60 -127.5
s-52.666 -32.5 -87.999 -32.5s-84.5 13.667 -147.5 41s-104 41 -123 41s-33.667 -1.16699 -44 -3.5s-24.5 -21.5 -42.5 -57.5zM333.002 1760h249l291 -1760h-195l-50 336h-319l-46 -336h-197zM332.002 504h270l-139 930h-3z" />
    <glyph glyph-name="Adieresis" unicode="&#xc4;" horiz-adv-x="939" 
d="M586 2056h230v-178h-230v178zM102 2056h230v-178h-230v178zM333 1760h249l291 -1760h-195l-50 336h-319l-46 -336h-197zM332 504h270l-139 930h-3z" />
    <glyph glyph-name="Aring" unicode="&#xc5;" horiz-adv-x="939" 
d="M311.5 1910.5c-35.667 36.333 -53.5 80.665 -53.5 132.998s17.833 96.666 53.5 133c35.667 36.333 84.5 54.5 146.5 54.5s110.833 -18.167 146.5 -54.5s53.5 -80.666 53.5 -132.999s-17.833 -96.666 -53.5 -132.999s-84.5 -54.5 -146.5 -54.5
s-110.833 18.167 -146.5 54.5zM568 2044c0 31.333 -9.66699 58.5 -29 81.5s-46 34.5 -80 34.5s-60.5 -11.5 -79.5 -34.5s-28.5 -50.167 -28.5 -81.5s9.5 -58.5 28.5 -81.5s45.5 -34.5 79.5 -34.5s60.667 11.5 80 34.5s29 50.167 29 81.5zM333 1760h249l291 -1760h-195
l-50 336h-319l-46 -336h-197zM332 503.999h270l-139 930h-3z" />
    <glyph glyph-name="AE" unicode="&#xc6;" horiz-adv-x="1206" 
d="M419 1760h686v-172h-302v-602h285v-174h-285v-640h306v-172h-513v336h-267l-65 -336h-198zM596 497v1093l-26 -1l-211 -1092h237z" />
    <glyph glyph-name="Ccedilla" unicode="&#xc7;" horiz-adv-x="918" 
d="M303 -501c154 0 231 47 231 141c0 42.667 -15.5 78.167 -46.5 106.5s-68.833 47.5 -113.5 57.5l40 196h69l12 -144c135.333 -56 203 -140.333 203 -253c0 -55.333 -25.833 -105.833 -77.5 -151.5s-118.5 -68.5 -200.5 -68.5c-38 0 -77 6 -117 18v98zM124 1252
c0 133.333 10.9971 231.332 32.9971 293.999s46 108.667 72 138c56.667 64 139.334 96.333 248.001 97c152 -0.666992 250 -67.667 294 -201c25.333 -76.667 38 -178.667 38 -306v-195h-203v196c0 112.667 -6.16699 188.834 -18.5 228.501s-27.166 66 -44.499 79
s-39.333 19.5 -66 19.5c-55.333 0 -93.5 -26.167 -114.5 -78.5s-31.5 -134.833 -31.5 -247.5v-762c0 -133.333 9.5 -226.5 28.5 -279.5s55.667 -79.5 110 -79.5s90.666 26.667 108.999 80s27.5 146.666 27.5 279.999v195h205v-193c0 -184.667 -25.167 -320.5 -75.5 -407.5
s-138.166 -130.5 -263.499 -130.5s-214.666 44.833 -267.999 134.5s-80 224.834 -80 405.501v733z" />
    <glyph glyph-name="Egrave" unicode="&#xc8;" horiz-adv-x="771" 
d="M234 1952v211l371 -194v-111zM144 1760h526v-172h-319v-602h302v-172h-302v-642h323v-172h-530v1760z" />
    <glyph glyph-name="Eacute" unicode="&#xc9;" horiz-adv-x="771" 
d="M144 1760h526v-172h-319v-602h302v-172h-302v-642h323v-172h-530v1760zM225 2007l419 174v-199l-419 -86v111z" />
    <glyph glyph-name="Ecircumflex" unicode="&#xca;" horiz-adv-x="771" 
d="M144 1760h526v-172h-319v-602h302v-172h-302v-642h323v-172h-530v1760zM298 2146h232l153 -294h-183l-86 205l-86 -205h-184z" />
    <glyph glyph-name="Edieresis" unicode="&#xcb;" horiz-adv-x="771" 
d="M144 1760h526v-172h-319v-602h302v-172h-302v-642h323v-172h-530v1760zM541 2056h230v-178h-230v178zM57 2056h230v-178h-230v178z" />
    <glyph glyph-name="Igrave" unicode="&#xcc;" horiz-adv-x="527" 
d="M82 1952v211l371 -194v-111zM160 1760h207v-1760h-207v1760z" />
    <glyph glyph-name="Iacute" unicode="&#xcd;" horiz-adv-x="527" 
d="M74 2007l419 174v-199l-419 -86v111zM160 1760h207v-1760h-207v1760z" />
    <glyph glyph-name="Icircumflex" unicode="&#xce;" horiz-adv-x="527" 
d="M148 2146h232l153 -294h-183l-86 205l-86 -205h-184zM160 1760h207v-1760h-207v1760z" />
    <glyph glyph-name="Idieresis" unicode="&#xcf;" horiz-adv-x="527" 
d="M391 2056h230v-178h-230v178zM-93 2056h230v-178h-230v178zM160 1760h207v-1760h-207v1760z" />
    <glyph glyph-name="Eth" unicode="&#xd0;" horiz-adv-x="949" 
d="M143 1760h330.999c134.667 0 227.334 -41.5 278.001 -124.5s76 -200.833 76 -353.5l1 -773c0 -180.667 -27.667 -310.667 -83 -390s-148.333 -119 -279 -119h-324v1760zM621.999 1287c0 110 -13 189 -39 237s-68.667 72 -128 72h-106v-1429h106c40 0 71.333 8 94 24
c48.667 34.667 73 130 73 286v810zM53.999 1004h452v-136h-452v136z" />
    <glyph glyph-name="Ntilde" unicode="&#xd1;" horiz-adv-x="1014" 
d="M194 1952c18 62 41.6689 103.833 71.002 125.5s62.166 32.5 98.499 32.5s87.333 -12.333 153 -37s105.5 -37 119.5 -37h4c11.333 2 21.166 7.5 29.499 16.5s17.166 27.167 26.499 54.5l123 -28l-9 -37c-16.667 -63.333 -36.667 -105.833 -60 -127.5
s-52.666 -32.5 -87.999 -32.5s-84.5 13.667 -147.5 41s-104 41 -123 41s-33.667 -1.16699 -44 -3.5s-24.5 -21.5 -42.5 -57.5zM687.002 1760h183v-1760h-152l-395 1208l12 -444v-764h-191v1760h156l408 -1198l-21 509v689z" />
    <glyph glyph-name="Ograve" unicode="&#xd2;" horiz-adv-x="944" 
d="M290 1954v211l371 -194v-111zM124 1282c0 200 35.998 337.333 107.998 412c56.667 58.667 139 88 247 88c157.333 0 258 -64.667 302 -194c26 -76.667 39 -178.667 39 -306v-776c0 -183.333 -25.667 -316.833 -77 -400.5s-141.166 -125.5 -269.499 -125.5
s-218.666 42 -270.999 126s-78.5 217.333 -78.5 400v776zM612.998 1294c0 112.667 -9.00195 192.5 -27.002 239.5s-54.333 70.5 -109 70.5s-92.667 -24 -114 -72s-32 -127 -32 -237v-791c0 -134 9.33301 -225.167 28 -273.5s56.334 -72.5 113.001 -72.5
s94.334 24.5 113.001 73.5s28 139.833 28 272.5v790z" />
    <glyph glyph-name="Oacute" unicode="&#xd3;" horiz-adv-x="944" 
d="M124 1282c0 200 35.998 337.333 107.998 412c56.667 58.667 139 88 247 88c157.333 0 258 -64.667 302 -194c26 -76.667 39 -178.667 39 -306v-776c0 -183.333 -25.667 -316.833 -77 -400.5s-141.166 -125.5 -269.499 -125.5s-218.666 42 -270.999 126
s-78.5 217.333 -78.5 400v776zM612.998 1294c0 112.667 -9.00195 192.5 -27.002 239.5s-54.333 70.5 -109 70.5s-92.667 -24 -114 -72s-32 -127 -32 -237v-791c0 -134 9.33301 -225.167 28 -273.5s56.334 -72.5 113.001 -72.5s94.334 24.5 113.001 73.5s28 139.833 28 272.5
v790zM281.996 2009l419 174v-199l-419 -86v111z" />
    <glyph glyph-name="Ocircumflex" unicode="&#xd4;" horiz-adv-x="944" 
d="M124 1282c0 200 35.998 337.333 107.998 412c56.667 58.667 139 88 247 88c157.333 0 258 -64.667 302 -194c26 -76.667 39 -178.667 39 -306v-776c0 -183.333 -25.667 -316.833 -77 -400.5s-141.166 -125.5 -269.499 -125.5s-218.666 42 -270.999 126
s-78.5 217.333 -78.5 400v776zM612.998 1294c0 112.667 -9.00195 192.5 -27.002 239.5s-54.333 70.5 -109 70.5s-92.667 -24 -114 -72s-32 -127 -32 -237v-791c0 -134 9.33301 -225.167 28 -273.5s56.334 -72.5 113.001 -72.5s94.334 24.5 113.001 73.5s28 139.833 28 272.5
v790zM355.996 2148h232l153 -294h-183l-86 205l-86 -205h-184z" />
    <glyph glyph-name="Otilde" unicode="&#xd5;" horiz-adv-x="944" 
d="M159 1954c18 62 41.6689 103.833 71.002 125.5s62.166 32.5 98.499 32.5s87.333 -12.333 153 -37s105.5 -37 119.5 -37h4c11.333 2 21.166 7.5 29.499 16.5s17.166 27.167 26.499 54.5l123 -28l-9 -37c-16.667 -63.333 -36.667 -105.833 -60 -127.5
s-52.666 -32.5 -87.999 -32.5s-84.5 13.667 -147.5 41s-104 41 -123 41s-33.667 -1.16699 -44 -3.5s-24.5 -21.5 -42.5 -57.5zM124.002 1282c0 200 35.998 337.333 107.998 412c56.667 58.667 139 88 247 88c157.333 0 258 -64.667 302 -194c26 -76.667 39 -178.667 39 -306
v-776c0 -183.333 -25.667 -316.833 -77 -400.5s-141.166 -125.5 -269.499 -125.5s-218.666 42 -270.999 126s-78.5 217.333 -78.5 400v776zM613 1294c0 112.667 -9.00195 192.5 -27.002 239.5s-54.333 70.5 -109 70.5s-92.667 -24 -114 -72s-32 -127 -32 -237v-791
c0 -134 9.33301 -225.167 28 -273.5s56.334 -72.5 113.001 -72.5s94.334 24.5 113.001 73.5s28 139.833 28 272.5v790z" />
    <glyph glyph-name="Odieresis" unicode="&#xd6;" horiz-adv-x="944" 
d="M124 1282c0 200 35.998 337.333 107.998 412c56.667 58.667 139 88 247 88c157.333 0 258 -64.667 302 -194c26 -76.667 39 -178.667 39 -306v-776c0 -183.333 -25.667 -316.833 -77 -400.5s-141.166 -125.5 -269.499 -125.5s-218.666 42 -270.999 126
s-78.5 217.333 -78.5 400v776zM612.998 1294c0 112.667 -9.00195 192.5 -27.002 239.5s-54.333 70.5 -109 70.5s-92.667 -24 -114 -72s-32 -127 -32 -237v-791c0 -134 9.33301 -225.167 28 -273.5s56.334 -72.5 113.001 -72.5s94.334 24.5 113.001 73.5s28 139.833 28 272.5
v790zM598.996 2058h230v-178h-230v178zM114.996 2058h230v-178h-230v178z" />
    <glyph glyph-name="multiply" unicode="&#xd7;" horiz-adv-x="710" 
d="M534 936l100 -104l-176 -177l176 -177l-100 -104l-179 178l-179 -178l-100 104l176 177l-176 177l100 104l179 -178z" />
    <glyph glyph-name="Oslash" unicode="&#xd8;" horiz-adv-x="900" 
d="M612 1362c-3.33301 77.333 -12 134.667 -26 172c-18 46.667 -54.333 70 -109 70s-92.667 -24 -114 -72s-32 -127 -32 -237v-732zM346 279.001c4 -19.333 8.33105 -35.667 12.998 -49c18.667 -48 56.334 -72 113.001 -72s94.334 24.5 113.001 73.5s28 139.833 28 272.5
v528zM793.998 1544c17.333 -66 26 -153.333 26 -262v-776c0 -183.333 -25.667 -316.833 -77 -400.5s-141 -125.5 -269 -125.5c-89.333 0 -160.333 20.333 -213 61l-87 -247l-99 40l108 308c-39.333 84 -59 205.333 -59 364v776c0 200 36 337.333 108 412
c56.667 58.667 139.667 88 249 88s191 -31.333 245 -94l77 218l107 -36z" />
    <glyph glyph-name="Ugrave" unicode="&#xd9;" horiz-adv-x="963" 
d="M300 1951v211l371 -194v-111zM623 1760h205.999v-1308c0 -164.667 -25.833 -284.667 -77.5 -360s-141.167 -113 -268.5 -113s-217.333 37.667 -270 113s-79 195.333 -79 360v1308h207v-1303c0 -117.333 4.83301 -187.5 14.5 -210.5s19.834 -41.167 30.501 -54.5
c18.667 -25.333 51 -38 97 -38s80 14 102 42s33.833 69.667 35.5 125s2.5 100.333 2.5 135v1304z" />
    <glyph glyph-name="Uacute" unicode="&#xda;" horiz-adv-x="963" 
d="M623 1760h205.999v-1308c0 -164.667 -25.833 -284.667 -77.5 -360s-141.167 -113 -268.5 -113s-217.333 37.667 -270 113s-79 195.333 -79 360v1308h207v-1303c0 -117.333 4.83301 -187.5 14.5 -210.5s19.834 -41.167 30.501 -54.5c18.667 -25.333 51 -38 97 -38
s80 14 102 42s33.833 69.667 35.5 125s2.5 100.333 2.5 135v1304zM299.999 2006l419 174v-199l-419 -86v111z" />
    <glyph glyph-name="Ucircumflex" unicode="&#xdb;" horiz-adv-x="963" 
d="M623 1760h205.999v-1308c0 -164.667 -25.833 -284.667 -77.5 -360s-141.167 -113 -268.5 -113s-217.333 37.667 -270 113s-79 195.333 -79 360v1308h207v-1303c0 -117.333 4.83301 -187.5 14.5 -210.5s19.834 -41.167 30.501 -54.5c18.667 -25.333 51 -38 97 -38
s80 14 102 42s33.833 69.667 35.5 125s2.5 100.333 2.5 135v1304zM373.999 2145h232l153 -294h-183l-86 205l-86 -205h-184z" />
    <glyph glyph-name="Udieresis" unicode="&#xdc;" horiz-adv-x="963" 
d="M623 1760h205.999v-1308c0 -164.667 -25.833 -284.667 -77.5 -360s-141.167 -113 -268.5 -113s-217.333 37.667 -270 113s-79 195.333 -79 360v1308h207v-1303c0 -117.333 4.83301 -187.5 14.5 -210.5s19.834 -41.167 30.501 -54.5c18.667 -25.333 51 -38 97 -38
s80 14 102 42s33.833 69.667 35.5 125s2.5 100.333 2.5 135v1304zM616.999 2055h230v-178h-230v178zM132.999 2055h230v-178h-230v178z" />
    <glyph glyph-name="Yacute" unicode="&#xdd;" horiz-adv-x="836" 
d="M234 2007l419 174v-199l-419 -86v111zM614 1760h203l-284 -1021v-739h-207v739l-306 1021h201l208 -720h4z" />
    <glyph glyph-name="Thorn" unicode="&#xde;" horiz-adv-x="927" 
d="M162 1760h206.001v-261h147c107.333 0 187 -29.667 239 -89c62 -70.667 93 -211.667 93 -423v-24c-0.666992 -226.667 -34.334 -377.667 -101.001 -453c-52.667 -58.667 -129.667 -88 -231 -88h-147v-422h-206v1760zM641.001 994c0 122.667 -9.5 210.167 -28.5 262.5
s-56.833 78.5 -113.5 78.5h-131v-741h127c58.667 0 97.667 26.167 117 78.5s29 149.5 29 291.5v30z" />
    <glyph glyph-name="germandbls" unicode="&#xdf;" horiz-adv-x="981" 
d="M144 1417c0 132.667 19.6689 223.668 59.002 273.001c48.667 60 139.667 90 273 90c0.666992 0 1.33398 0.333008 2.00098 1c131.333 -0.666992 223 -27 275 -79s78 -147 78 -285v-197c0 -82.667 -11.833 -144 -35.5 -184s-66.167 -70.333 -127.5 -91
c84.667 -20 143 -58.833 175 -116.5s48 -149.5 48 -275.5v-77c0 -147.333 -12.167 -250.333 -36.5 -309s-59.833 -101.167 -106.5 -127.5s-111.334 -39.5 -194.001 -39.5h-104v168c103.333 0 167.166 11.833 191.499 35.5s38.333 53 42 88s5.5 69.5 5.5 103.5v261
c0 75.333 -16.167 126.666 -48.5 153.999s-92.833 41 -181.5 41v168c64.667 0 109.5 11.167 134.5 33.5s37.5 61.5 37.5 117.5v300c0 60 -10.5 101.167 -31.5 123.5s-57.833 33.5 -110.5 33.5s-89.334 -11.5 -110.001 -34.5s-31 -63.833 -31 -122.5v-1470h-204v1417z" />
    <glyph glyph-name="agrave" unicode="&#xe0;" horiz-adv-x="926" 
d="M300 1692v211l371 -194v-111zM586 827c-84 -38 -139.999 -67.332 -167.999 -87.999s-49.167 -44.834 -63.5 -72.501s-21.5 -73.167 -21.5 -136.5v-139c0 -87.333 7.66699 -148.833 23 -184.5s41.666 -53.5 78.999 -53.5s69.333 10.833 96 32.5s45 45.167 55 70.5v571z
M145.001 1066c0 181.333 28.332 302 84.999 362s137.334 90 242.001 90s180.5 -25.333 227.5 -76s75.833 -132 86.5 -244c4.66699 -48 7 -107 7 -177v-1021h-206v130c-10.667 -36 -34 -68.833 -70 -98.5s-80.667 -44.5 -134 -44.5c-170 0 -255.667 132.667 -257 398v146
c0 86 23.5 159.5 70.5 220.5s176.833 130.5 389.5 208.5v116c0 128.667 -9.33301 206 -28 232s-50.5 39 -95.5 39s-75.167 -19.667 -90.5 -59s-23 -110.333 -23 -213v-52h-204v43z" />
    <glyph glyph-name="aacute" unicode="&#xe1;" horiz-adv-x="926" 
d="M292 1747l419 174v-199l-419 -86v111zM586 827c-84 -38 -139.999 -67.332 -167.999 -87.999s-49.167 -44.834 -63.5 -72.501s-21.5 -73.167 -21.5 -136.5v-139c0 -87.333 7.66699 -148.833 23 -184.5s41.666 -53.5 78.999 -53.5s69.333 10.833 96 32.5s45 45.167 55 70.5
v571zM145.001 1066c0 181.333 28.332 302 84.999 362s137.334 90 242.001 90s180.5 -25.333 227.5 -76s75.833 -132 86.5 -244c4.66699 -48 7 -107 7 -177v-1021h-206v130c-10.667 -36 -34 -68.833 -70 -98.5s-80.667 -44.5 -134 -44.5c-170 0 -255.667 132.667 -257 398
v146c0 86 23.5 159.5 70.5 220.5s176.833 130.5 389.5 208.5v116c0 128.667 -9.33301 206 -28 232s-50.5 39 -95.5 39s-75.167 -19.667 -90.5 -59s-23 -110.333 -23 -213v-52h-204v43z" />
    <glyph glyph-name="acircumflex" unicode="&#xe2;" horiz-adv-x="926" 
d="M366 1886h232l153 -294h-183l-86 205l-86 -205h-184zM586 827c-84 -38 -139.999 -67.332 -167.999 -87.999s-49.167 -44.834 -63.5 -72.501s-21.5 -73.167 -21.5 -136.5v-139c0 -87.333 7.66699 -148.833 23 -184.5s41.666 -53.5 78.999 -53.5s69.333 10.833 96 32.5
s45 45.167 55 70.5v571zM145.001 1066c0 181.333 28.332 302 84.999 362s137.334 90 242.001 90s180.5 -25.333 227.5 -76s75.833 -132 86.5 -244c4.66699 -48 7 -107 7 -177v-1021h-206v130c-10.667 -36 -34 -68.833 -70 -98.5s-80.667 -44.5 -134 -44.5
c-170 0 -255.667 132.667 -257 398v146c0 86 23.5 159.5 70.5 220.5s176.833 130.5 389.5 208.5v116c0 128.667 -9.33301 206 -28 232s-50.5 39 -95.5 39s-75.167 -19.667 -90.5 -59s-23 -110.333 -23 -213v-52h-204v43z" />
    <glyph glyph-name="atilde" unicode="&#xe3;" horiz-adv-x="926" 
d="M169 1692c18 62 41.6689 103.833 71.002 125.5s62.166 32.5 98.499 32.5s87.333 -12.333 153 -37s105.5 -37 119.5 -37h4c11.333 2 21.166 7.5 29.499 16.5s17.166 27.167 26.499 54.5l123 -28l-9 -37c-16.667 -63.333 -36.667 -105.833 -60 -127.5
s-52.666 -32.5 -87.999 -32.5s-84.5 13.667 -147.5 41s-104 41 -123 41s-33.667 -1.16699 -44 -3.5s-24.5 -21.5 -42.5 -57.5zM586.002 827c-84 -38 -139.999 -67.332 -167.999 -87.999s-49.167 -44.834 -63.5 -72.501s-21.5 -73.167 -21.5 -136.5v-139
c0 -87.333 7.66699 -148.833 23 -184.5s41.666 -53.5 78.999 -53.5s69.333 10.833 96 32.5s45 45.167 55 70.5v571zM145.003 1066c0 181.333 28.332 302 84.999 362s137.334 90 242.001 90s180.5 -25.333 227.5 -76s75.833 -132 86.5 -244c4.66699 -48 7 -107 7 -177v-1021
h-206v130c-10.667 -36 -34 -68.833 -70 -98.5s-80.667 -44.5 -134 -44.5c-170 0 -255.667 132.667 -257 398v146c0 86 23.5 159.5 70.5 220.5s176.833 130.5 389.5 208.5v116c0 128.667 -9.33301 206 -28 232s-50.5 39 -95.5 39s-75.167 -19.667 -90.5 -59
s-23 -110.333 -23 -213v-52h-204v43z" />
    <glyph glyph-name="adieresis" unicode="&#xe4;" horiz-adv-x="926" 
d="M609 1796h230v-178h-230v178zM125 1796h230v-178h-230v178zM586 827c-84 -38 -139.999 -67.332 -167.999 -87.999s-49.167 -44.834 -63.5 -72.501s-21.5 -73.167 -21.5 -136.5v-139c0 -87.333 7.66699 -148.833 23 -184.5s41.666 -53.5 78.999 -53.5
s69.333 10.833 96 32.5s45 45.167 55 70.5v571zM145.001 1066c0 181.333 28.332 302 84.999 362s137.334 90 242.001 90s180.5 -25.333 227.5 -76s75.833 -132 86.5 -244c4.66699 -48 7 -107 7 -177v-1021h-206v130c-10.667 -36 -34 -68.833 -70 -98.5
s-80.667 -44.5 -134 -44.5c-170 0 -255.667 132.667 -257 398v146c0 86 23.5 159.5 70.5 220.5s176.833 130.5 389.5 208.5v116c0 128.667 -9.33301 206 -28 232s-50.5 39 -95.5 39s-75.167 -19.667 -90.5 -59s-23 -110.333 -23 -213v-52h-204v43z" />
    <glyph glyph-name="aring" unicode="&#xe5;" horiz-adv-x="926" 
d="M334.5 1650.5c-35.667 36.333 -53.5 80.666 -53.5 132.999s17.833 96.666 53.5 132.999s84.5 54.5 146.5 54.5s110.833 -18.167 146.5 -54.5s53.5 -80.666 53.5 -132.999s-17.833 -96.666 -53.5 -132.999s-84.5 -54.5 -146.5 -54.5s-110.833 18.167 -146.5 54.5z
M591 1784c0 31.333 -9.66699 58.5 -29 81.5s-46 34.5 -80 34.5s-60.5 -11.5 -79.5 -34.5s-28.5 -50.167 -28.5 -81.5s9.5 -58.5 28.5 -81.5s45.5 -34.5 79.5 -34.5s60.667 11.5 80 34.5s29 50.167 29 81.5zM586 827c-84 -38 -139.999 -67.332 -167.999 -87.999
s-49.167 -44.834 -63.5 -72.501s-21.5 -73.167 -21.5 -136.5v-139c0 -87.333 7.66699 -148.833 23 -184.5s41.666 -53.5 78.999 -53.5s69.333 10.833 96 32.5s45 45.167 55 70.5v571zM145.001 1066c0 181.333 28.332 302 84.999 362s137.334 90 242.001 90
s180.5 -25.333 227.5 -76s75.833 -132 86.5 -244c4.66699 -48 7 -107 7 -177v-1021h-206v130c-10.667 -36 -34 -68.833 -70 -98.5s-80.667 -44.5 -134 -44.5c-170 0 -255.667 132.667 -257 398v146c0 86 23.5 159.5 70.5 220.5s176.833 130.5 389.5 208.5v116
c0 128.667 -9.33301 206 -28 232s-50.5 39 -95.5 39s-75.167 -19.667 -90.5 -59s-23 -110.333 -23 -213v-52h-204v43z" />
    <glyph glyph-name="ae" unicode="&#xe6;" horiz-adv-x="1356" 
d="M691 1418c49.333 66.667 127.33 100 233.997 100c150 0 244.333 -65 283 -195c21.333 -72.667 32 -186.334 32 -341.001c0 -51.333 0.333008 -94.666 1 -129.999c0 -70 -0.333008 -107.333 -1 -112h-448v-283c0 -112 8 -190.667 24 -236s46.833 -68 92.5 -68
s76.5 14 92.5 42s25.833 62.333 29.5 103s5.5 91.667 5.5 153v111h202v-60c0 -189.333 -16.667 -316 -50 -380s-80 -105.333 -140 -124c-34.667 -10.667 -75.667 -16 -123 -16c-124 0 -209 44.333 -255 133c-25.333 -32.667 -63.333 -62.167 -114 -88.5
s-101.334 -39.5 -152.001 -39.5c-92 0 -161.333 34.833 -208 104.5s-70 169.167 -70 298.5v147c0.666992 58.667 9.33398 108.5 26.001 149.5s47.834 77.667 93.501 110s90.334 58.833 134.001 79.5s112.5 49.334 206.5 86.001v101c0 112.667 -4 179.667 -12 201
c-9.33301 21.333 -18 38 -26 50c-14.667 21.333 -44 32 -88 32c-0.666992 0 -1 0.333008 -1 1c-43.333 0 -72.333 -19.333 -87 -58c-15.333 -38.667 -23 -109.334 -23 -212.001v-54h-204v43c0 181.333 28.333 302 85 362s138.334 90 245.001 90s178.667 -33.333 216 -100z
M584.997 257v564.998c-110.667 -50 -178.667 -89.667 -204 -119s-39.666 -58.666 -42.999 -87.999s-5 -58.666 -5 -87.999v-136c0 -87.333 7.66699 -148.833 23 -184.5s41.666 -53.5 78.999 -53.5s69.333 11 96 33s44.667 45.667 54 71zM1036 1073c0 108 -4 172.667 -12 194
s-17.667 40.333 -29 57s-32 25 -62 25c-71.333 0 -114 -36.667 -128 -110c-8.66699 -46 -13 -105.667 -13 -179v-171h244v184z" />
    <glyph glyph-name="ccedilla" unicode="&#xe7;" horiz-adv-x="880" 
d="M277 -501c154 0 231 47 231 141c0 42.667 -15.5 78.167 -46.5 106.5s-68.833 47.5 -113.5 57.5l40 196h69l12 -144c135.333 -56 203 -140.333 203 -253c0 -55.333 -25.833 -105.833 -77.5 -151.5s-118.5 -68.5 -200.5 -68.5c-38 0 -77 6 -117 18v98zM124 1008
c0 130 9.8291 225.166 29.4961 285.499s41.834 104.5 66.501 132.5c54 61.333 133.333 92 238 92s180 -26 226 -78c45.333 -52 73.333 -129.333 84 -232c4 -44 6.33301 -96.333 7 -157v-104h-202v132c0 93.333 -3.66699 154.333 -11 183
c-26.667 42.667 -58.667 69.334 -96 80.001c-65.333 0 -105.666 -32.667 -120.999 -98c-10 -41.333 -15 -98.333 -15 -171v-638c0 -102.667 7.83301 -174.5 23.5 -215.5s45.834 -61.5 90.501 -61.5s77.334 14.5 98.001 43.5s31 105.5 31 229.5v145h202v-97
c0 -204.667 -27 -338.667 -81 -402s-136.333 -95 -247 -95c-174.667 0 -277 93.333 -307 280c-10.667 68.667 -16 150 -16 244v502z" />
    <glyph glyph-name="egrave" unicode="&#xe8;" horiz-adv-x="893" 
d="M275 1692v211l371 -194v-111zM124 1035c0 189.333 33.9971 321 101.997 395c53.333 58.667 132 88 236 88c150.667 0 245.334 -65 284.001 -195c21.333 -73.333 32 -172.333 32 -297v-283h-448v-299c0 -130 10.333 -211 31 -243s53.334 -48 98.001 -48
s74.5 18.667 89.5 56s22.833 77.833 23.5 121.5s1 80.5 1 110.5v121h201v-64c0 -159.333 -11.167 -271 -33.5 -335s-56.166 -110.167 -101.499 -138.5s-101.5 -42.5 -168.5 -42.5s-120.667 8.5 -161 25.5s-72.333 39.5 -96 67.5s-44.5 72.667 -62.5 134s-27 160 -27 296v530
zM572.997 1073c0 106.667 -3.83301 171 -11.5 193s-17.5 41.333 -29.5 58s-33.667 25 -65 25c-60 0 -98 -25.167 -114 -75.5s-24 -119.5 -24 -207.5v-184h244v191z" />
    <glyph glyph-name="eacute" unicode="&#xe9;" horiz-adv-x="893" 
d="M124 1035c0 189.333 33.9971 321 101.997 395c53.333 58.667 132 88 236 88c150.667 0 245.334 -65 284.001 -195c21.333 -73.333 32 -172.333 32 -297v-283h-448v-299c0 -130 10.333 -211 31 -243s53.334 -48 98.001 -48s74.5 18.667 89.5 56s22.833 77.833 23.5 121.5
s1 80.5 1 110.5v121h201v-64c0 -159.333 -11.167 -271 -33.5 -335s-56.166 -110.167 -101.499 -138.5s-101.5 -42.5 -168.5 -42.5s-120.667 8.5 -161 25.5s-72.333 39.5 -96 67.5s-44.5 72.667 -62.5 134s-27 160 -27 296v530zM572.997 1073
c0 106.667 -3.83301 171 -11.5 193s-17.5 41.333 -29.5 58s-33.667 25 -65 25c-60 0 -98 -25.167 -114 -75.5s-24 -119.5 -24 -207.5v-184h244v191zM267.997 1747l419 174v-199l-419 -86v111z" />
    <glyph glyph-name="ecircumflex" unicode="&#xea;" horiz-adv-x="893" 
d="M124 1035c0 189.333 33.9971 321 101.997 395c53.333 58.667 132 88 236 88c150.667 0 245.334 -65 284.001 -195c21.333 -73.333 32 -172.333 32 -297v-283h-448v-299c0 -130 10.333 -211 31 -243s53.334 -48 98.001 -48s74.5 18.667 89.5 56s22.833 77.833 23.5 121.5
s1 80.5 1 110.5v121h201v-64c0 -159.333 -11.167 -271 -33.5 -335s-56.166 -110.167 -101.499 -138.5s-101.5 -42.5 -168.5 -42.5s-120.667 8.5 -161 25.5s-72.333 39.5 -96 67.5s-44.5 72.667 -62.5 134s-27 160 -27 296v530zM572.997 1073
c0 106.667 -3.83301 171 -11.5 193s-17.5 41.333 -29.5 58s-33.667 25 -65 25c-60 0 -98 -25.167 -114 -75.5s-24 -119.5 -24 -207.5v-184h244v191zM340.997 1886h232l153 -294h-183l-86 205l-86 -205h-184z" />
    <glyph glyph-name="edieresis" unicode="&#xeb;" horiz-adv-x="893" 
d="M124 1035c0 189.333 33.9971 321 101.997 395c53.333 58.667 132 88 236 88c150.667 0 245.334 -65 284.001 -195c21.333 -73.333 32 -172.333 32 -297v-283h-448v-299c0 -130 10.333 -211 31 -243s53.334 -48 98.001 -48s74.5 18.667 89.5 56s22.833 77.833 23.5 121.5
s1 80.5 1 110.5v121h201v-64c0 -159.333 -11.167 -271 -33.5 -335s-56.166 -110.167 -101.499 -138.5s-101.5 -42.5 -168.5 -42.5s-120.667 8.5 -161 25.5s-72.333 39.5 -96 67.5s-44.5 72.667 -62.5 134s-27 160 -27 296v530zM572.997 1073
c0 106.667 -3.83301 171 -11.5 193s-17.5 41.333 -29.5 58s-33.667 25 -65 25c-60 0 -98 -25.167 -114 -75.5s-24 -119.5 -24 -207.5v-184h244v191zM583.997 1796h230v-178h-230v178zM99.9971 1796h230v-178h-230v178z" />
    <glyph glyph-name="igrave" unicode="&#xec;" horiz-adv-x="504" 
d="M63 1692v211l371 -194v-111zM149 1500h206v-1500h-206v1500z" />
    <glyph glyph-name="iacute" unicode="&#xed;" horiz-adv-x="504" 
d="M149 1500h206v-1500h-206v1500zM55 1747l419 174v-199l-419 -86v111z" />
    <glyph glyph-name="icircumflex" unicode="&#xee;" horiz-adv-x="504" 
d="M149 1500h206v-1500h-206v1500zM129 1886h232l153 -294h-183l-86 205l-86 -205h-184z" />
    <glyph glyph-name="idieresis" unicode="&#xef;" horiz-adv-x="504" 
d="M149 1500h206v-1500h-206v1500zM372 1796h230v-178h-230v178zM-112 1796h230v-178h-230v178z" />
    <glyph glyph-name="eth" unicode="&#xf0;" 
d="M421 1101c84.667 0 148.333 -25.334 191 -76.001c0 28 -3.66699 92.833 -11 194.5s-16 164.167 -26 187.5l-217 -126l-59 118l208 121c-56 64.667 -131 103 -225 115l67 145c142.667 -6.66699 254 -60 334 -160l200 115l59 -118l-189 -110c18 -37.333 34 -132 48 -284
s21 -256.667 21 -314v-393c0 -138 -10.667 -238.667 -32 -302s-45.333 -109.666 -72 -138.999c-56.667 -63.333 -147.667 -95 -273 -95s-213.5 40.167 -264.5 120.5s-76.5 200.833 -76.5 361.5v109c0 192 24.167 328.333 72.5 409s129.833 121 244.5 121zM615.999 853.999
c-8.66699 16.667 -28.168 33 -58.501 49s-64.833 24 -103.5 24c-56.667 0 -94.667 -25 -114 -75s-29 -141.333 -29 -274v-138c0 -112 10.167 -187 30.5 -225s60.333 -57 120 -57s100.334 24.5 122.001 73.5s32.5 132.167 32.5 249.5v373z" />
    <glyph glyph-name="ntilde" unicode="&#xf1;" horiz-adv-x="970" 
d="M172 1692c18 62 41.6689 103.833 71.002 125.5s62.166 32.5 98.499 32.5s87.333 -12.333 153 -37s105.5 -37 119.5 -37h4c11.333 2 21.166 7.5 29.499 16.5s17.166 27.167 26.499 54.5l123 -28l-9 -37c-16.667 -63.333 -36.667 -105.833 -60 -127.5
s-52.666 -32.5 -87.999 -32.5s-84.5 13.667 -147.5 41s-104 41 -123 41s-33.667 -1.16699 -44 -3.5s-24.5 -21.5 -42.5 -57.5zM352.002 1341c13.333 48.667 42.498 90.5 87.498 125.5s101 52.5 168 52.5s121.333 -27.167 163 -81.5s62.5 -134.833 62.5 -241.5v-1196h-205
v1195c0 50.667 -11.667 88.667 -35 114s-55.666 38 -96.999 38s-75.666 -14.333 -102.999 -43s-41 -71.667 -41 -129v-1175h-205v1500h205v-159z" />
    <glyph glyph-name="ograve" unicode="&#xf2;" horiz-adv-x="914" 
d="M275 1692v211l371 -194v-111zM124 1027c0 243.333 56.001 394.999 168.001 454.999c45.333 24 98 36 158 36c156.667 0 256.667 -63 300 -189c26.667 -79.333 40 -180 40 -302v-531c0 -210.667 -28.333 -349 -85 -415s-138.667 -99 -246 -99
c-156.667 0 -256.334 66.667 -299.001 200c-24 76.667 -36 181.334 -36 314.001v531zM584.001 1068c0 142.667 -20.334 229.334 -61.001 260.001c-16.667 12.667 -38.334 19 -65.001 19c-54 0 -88.833 -24.333 -104.5 -73s-23.5 -117.334 -23.5 -206.001v-629
c0 -147.333 20.667 -236.333 62 -267c16.667 -12.667 37.334 -19 62.001 -19h4c52.667 0 86.834 24.833 102.501 74.5s23.5 120.167 23.5 211.5v629z" />
    <glyph glyph-name="oacute" unicode="&#xf3;" horiz-adv-x="914" 
d="M124 1027c0 243.333 56.001 394.999 168.001 454.999c45.333 24 98 36 158 36c156.667 0 256.667 -63 300 -189c26.667 -79.333 40 -180 40 -302v-531c0 -210.667 -28.333 -349 -85 -415s-138.667 -99 -246 -99c-156.667 0 -256.334 66.667 -299.001 200
c-24 76.667 -36 181.334 -36 314.001v531zM584.001 1068c0 142.667 -20.334 229.334 -61.001 260.001c-16.667 12.667 -38.334 19 -65.001 19c-54 0 -88.833 -24.333 -104.5 -73s-23.5 -117.334 -23.5 -206.001v-629c0 -147.333 20.667 -236.333 62 -267
c16.667 -12.667 37.334 -19 62.001 -19h4c52.667 0 86.834 24.833 102.501 74.5s23.5 120.167 23.5 211.5v629zM268 1747l419 174v-199l-419 -86v111z" />
    <glyph glyph-name="ocircumflex" unicode="&#xf4;" horiz-adv-x="914" 
d="M124 1027c0 243.333 56.001 394.999 168.001 454.999c45.333 24 98 36 158 36c156.667 0 256.667 -63 300 -189c26.667 -79.333 40 -180 40 -302v-531c0 -210.667 -28.333 -349 -85 -415s-138.667 -99 -246 -99c-156.667 0 -256.334 66.667 -299.001 200
c-24 76.667 -36 181.334 -36 314.001v531zM584.001 1068c0 142.667 -20.334 229.334 -61.001 260.001c-16.667 12.667 -38.334 19 -65.001 19c-54 0 -88.833 -24.333 -104.5 -73s-23.5 -117.334 -23.5 -206.001v-629c0 -147.333 20.667 -236.333 62 -267
c16.667 -12.667 37.334 -19 62.001 -19h4c52.667 0 86.834 24.833 102.501 74.5s23.5 120.167 23.5 211.5v629zM341 1886h232l153 -294h-183l-86 205l-86 -205h-184z" />
    <glyph glyph-name="otilde" unicode="&#xf5;" horiz-adv-x="914" 
d="M144 1692c18 62 41.6689 103.833 71.002 125.5s62.166 32.5 98.499 32.5s87.333 -12.333 153 -37s105.5 -37 119.5 -37h4c11.333 2 21.166 7.5 29.499 16.5s17.166 27.167 26.499 54.5l123 -28l-9 -37c-16.667 -63.333 -36.667 -105.833 -60 -127.5
s-52.666 -32.5 -87.999 -32.5s-84.5 13.667 -147.5 41s-104 41 -123 41s-33.667 -1.16699 -44 -3.5s-24.5 -21.5 -42.5 -57.5zM124.002 1027c0 243.333 56.001 394.999 168.001 454.999c45.333 24 98 36 158 36c156.667 0 256.667 -63 300 -189
c26.667 -79.333 40 -180 40 -302v-531c0 -210.667 -28.333 -349 -85 -415s-138.667 -99 -246 -99c-156.667 0 -256.334 66.667 -299.001 200c-24 76.667 -36 181.334 -36 314.001v531zM584.003 1068c0 142.667 -20.334 229.334 -61.001 260.001
c-16.667 12.667 -38.334 19 -65.001 19c-54 0 -88.833 -24.333 -104.5 -73s-23.5 -117.334 -23.5 -206.001v-629c0 -147.333 20.667 -236.333 62 -267c16.667 -12.667 37.334 -19 62.001 -19h4c52.667 0 86.834 24.833 102.501 74.5s23.5 120.167 23.5 211.5v629z" />
    <glyph glyph-name="odieresis" unicode="&#xf6;" horiz-adv-x="914" 
d="M124 1027c0 243.333 56.001 394.999 168.001 454.999c45.333 24 98 36 158 36c156.667 0 256.667 -63 300 -189c26.667 -79.333 40 -180 40 -302v-531c0 -210.667 -28.333 -349 -85 -415s-138.667 -99 -246 -99c-156.667 0 -256.334 66.667 -299.001 200
c-24 76.667 -36 181.334 -36 314.001v531zM584.001 1068c0 142.667 -20.334 229.334 -61.001 260.001c-16.667 12.667 -38.334 19 -65.001 19c-54 0 -88.833 -24.333 -104.5 -73s-23.5 -117.334 -23.5 -206.001v-629c0 -147.333 20.667 -236.333 62 -267
c16.667 -12.667 37.334 -19 62.001 -19h4c52.667 0 86.834 24.833 102.501 74.5s23.5 120.167 23.5 211.5v629zM584 1796h230v-178h-230v178zM100 1796h230v-178h-230v178z" />
    <glyph glyph-name="divide" unicode="&#xf7;" horiz-adv-x="804" 
d="M94 870h616v-232h-616v232zM253 535h298v-298h-298v298zM253 1274h298v-298h-298v298z" />
    <glyph glyph-name="oslash" unicode="&#xf8;" horiz-adv-x="879" 
d="M557 1280c-30.667 37.333 -63.332 59.668 -97.999 67.001c-54.667 0 -89.834 -24.333 -105.501 -73s-23.5 -117.334 -23.5 -206.001v-599zM364.002 205.002c19.333 -34.667 53 -52 101 -52s79.833 24.833 95.5 74.5s23.5 120.167 23.5 211.5v549zM219.002 72.002
c-63.333 71.333 -95 212.667 -95 424v531c0 243.333 56 395 168 455c45.333 24 99.5 36 162.5 36s116.5 -10.667 160.5 -32l52 186l101 -28l-64 -229c57.333 -74.667 86 -204 86 -388v-531c0 -210.667 -28.333 -349 -85 -415s-138.667 -99 -246 -99c-58 0 -108 9 -150 27
l-51 -182l-100 28z" />
    <glyph glyph-name="ugrave" unicode="&#xf9;" 
d="M317 1692v211l371 -194v-111zM616 1500h206v-1500h-206v153c-16 -50.667 -43.5 -92.167 -82.5 -124.5s-91.333 -48.5 -157 -48.5s-122 27.167 -169 81.5s-70.5 137.833 -70.5 250.5v1188h205v-1165c0 -118 43 -177 129 -177c48 0 84.167 16.667 108.5 50
s36.5 77.333 36.5 132v1160z" />
    <glyph glyph-name="uacute" unicode="&#xfa;" 
d="M616 1500h206v-1500h-206v153c-16 -50.667 -43.5 -92.167 -82.5 -124.5s-91.333 -48.5 -157 -48.5s-122 27.167 -169 81.5s-70.5 137.833 -70.5 250.5v1188h205v-1165c0 -118 43 -177 129 -177c48 0 84.167 16.667 108.5 50s36.5 77.333 36.5 132v1160zM309 1747l419 174
v-199l-419 -86v111z" />
    <glyph glyph-name="ucircumflex" unicode="&#xfb;" 
d="M616 1500h206v-1500h-206v153c-16 -50.667 -43.5 -92.167 -82.5 -124.5s-91.333 -48.5 -157 -48.5s-122 27.167 -169 81.5s-70.5 137.833 -70.5 250.5v1188h205v-1165c0 -118 43 -177 129 -177c48 0 84.167 16.667 108.5 50s36.5 77.333 36.5 132v1160zM383 1886h232
l153 -294h-183l-86 205l-86 -205h-184z" />
    <glyph glyph-name="udieresis" unicode="&#xfc;" 
d="M616 1500h206v-1500h-206v153c-16 -50.667 -43.5 -92.167 -82.5 -124.5s-91.333 -48.5 -157 -48.5s-122 27.167 -169 81.5s-70.5 137.833 -70.5 250.5v1188h205v-1165c0 -118 43 -177 129 -177c48 0 84.167 16.667 108.5 50s36.5 77.333 36.5 132v1160zM626 1796h230
v-178h-230v178zM142 1796h230v-178h-230v178z" />
    <glyph glyph-name="yacute" unicode="&#xfd;" horiz-adv-x="791" 
d="M213 1747l419 174v-199l-419 -86v111zM558 1500l198.002 0.000976562l-249 -1529c-12 -83.333 -27.333 -137.666 -46 -162.999s-39.334 -41.5 -62.001 -48.5s-52.334 -10.5 -89.001 -10.5h-201v155h71c70 0 108.667 8 116 24c6 7.33301 9 21.666 9 42.999
s-2.66699 48.666 -8 81.999l-245 1447h199l108 -780l44 -406h18l39 406z" />
    <glyph glyph-name="thorn" unicode="&#xfe;" horiz-adv-x="939" 
d="M147 1779l206 -0.000976562v-404c18.667 46.667 46.667 81.334 84 104.001c38 22.667 78.333 34 121 34c119.333 0 194.666 -62 225.999 -186c20 -77.333 30 -176.333 30 -297v-543c0 -199.333 -25.167 -333.333 -75.5 -402s-121.166 -103 -212.499 -103
c-36 0 -69.5 11.333 -100.5 34s-55.167 50.667 -72.5 84v-374h-206v2053zM608 1065c0 118.667 -9.66699 195.001 -29 229.001s-48 51 -86 51s-65 -7.83301 -81 -23.5s-29.833 -39.667 -41.5 -72s-17.5 -93.833 -17.5 -184.5v-613c0 -106.667 9 -182.834 27 -228.501
s52.333 -68.5 103 -68.5s84.167 23.167 100.5 69.5s24.5 124.833 24.5 235.5v605z" />
    <glyph glyph-name="ydieresis" unicode="&#xff;" horiz-adv-x="791" 
d="M530 1796h230v-178h-230v178zM46 1796h230v-178h-230v178zM558 1500l198.002 0.000976562l-249 -1529c-12 -83.333 -27.333 -137.666 -46 -162.999s-39.334 -41.5 -62.001 -48.5s-52.334 -10.5 -89.001 -10.5h-201v155h71c70 0 108.667 8 116 24
c6 7.33301 9 21.666 9 42.999s-2.66699 48.666 -8 81.999l-245 1447h199l108 -780l44 -406h18l39 406z" />
    <glyph glyph-name="Amacron" unicode="&#x100;" horiz-adv-x="939" 
d="M201 2004h501v-132h-501v132zM333 1760h249l291 -1760h-195l-50 336h-319l-46 -336h-197zM332 504h270l-139 930h-3z" />
    <glyph glyph-name="amacron" unicode="&#x101;" horiz-adv-x="926" 
d="M224 1744h501v-132h-501v132zM586 827c-84 -38 -139.999 -67.332 -167.999 -87.999s-49.167 -44.834 -63.5 -72.501s-21.5 -73.167 -21.5 -136.5v-139c0 -87.333 7.66699 -148.833 23 -184.5s41.666 -53.5 78.999 -53.5s69.333 10.833 96 32.5s45 45.167 55 70.5v571z
M145.001 1066c0 181.333 28.332 302 84.999 362s137.334 90 242.001 90s180.5 -25.333 227.5 -76s75.833 -132 86.5 -244c4.66699 -48 7 -107 7 -177v-1021h-206v130c-10.667 -36 -34 -68.833 -70 -98.5s-80.667 -44.5 -134 -44.5c-170 0 -255.667 132.667 -257 398v146
c0 86 23.5 159.5 70.5 220.5s176.833 130.5 389.5 208.5v116c0 128.667 -9.33301 206 -28 232s-50.5 39 -95.5 39s-75.167 -19.667 -90.5 -59s-23 -110.333 -23 -213v-52h-204v43z" />
    <glyph glyph-name="Abreve" unicode="&#x102;" horiz-adv-x="939" 
d="M586 2116h106.001v-13c0 -72.667 -19.667 -128.5 -59 -167.5s-97.833 -58.5 -175.5 -58.5s-136.334 19.333 -176.001 58s-59.5 94 -59.5 166v15h106c0 -80.667 43.333 -121 130 -121c38.667 0 69.667 8.5 93 25.5s35 48.833 35 95.5zM333.001 1760h249l291 -1760h-195
l-50 336h-319l-46 -336h-197zM332.001 504h270l-139 930h-3z" />
    <glyph glyph-name="abreve" unicode="&#x103;" horiz-adv-x="926" 
d="M609 1856h106.001v-13c0 -72.667 -19.667 -128.5 -59 -167.5s-97.833 -58.5 -175.5 -58.5s-136.334 19.333 -176.001 58s-59.5 94 -59.5 166v15h106c0 -80.667 43.333 -121 130 -121c38.667 0 69.667 8.5 93 25.5s35 48.833 35 95.5zM586.001 827
c-84 -38 -139.999 -67.332 -167.999 -87.999s-49.167 -44.834 -63.5 -72.501s-21.5 -73.167 -21.5 -136.5v-139c0 -87.333 7.66699 -148.833 23 -184.5s41.666 -53.5 78.999 -53.5s69.333 10.833 96 32.5s45 45.167 55 70.5v571zM145.002 1066
c0 181.333 28.332 302 84.999 362s137.334 90 242.001 90s180.5 -25.333 227.5 -76s75.833 -132 86.5 -244c4.66699 -48 7 -107 7 -177v-1021h-206v130c-10.667 -36 -34 -68.833 -70 -98.5s-80.667 -44.5 -134 -44.5c-170 0 -255.667 132.667 -257 398v146
c0 86 23.5 159.5 70.5 220.5s176.833 130.5 389.5 208.5v116c0 128.667 -9.33301 206 -28 232s-50.5 39 -95.5 39s-75.167 -19.667 -90.5 -59s-23 -110.333 -23 -213v-52h-204v43z" />
    <glyph glyph-name="Aogonek" unicode="&#x104;" horiz-adv-x="939" 
d="M661 7h85.001c-60.667 -59.333 -109.167 -122 -145.5 -188s-54.5 -122.333 -54.5 -169c0 -92.667 49.667 -139 149 -139c48 0 92 6.66699 132 20v-115c-13.333 -7.33301 -37 -15 -71 -23s-66.667 -12 -98 -12c-88 0 -155 21 -201 63s-69 97.833 -69 167.5
s24.167 141 72.5 214s115.166 133.5 200.499 181.5zM333.001 1760h249l291 -1760h-195l-50 336h-319l-46 -336h-197zM332.001 504h270l-139 930h-3z" />
    <glyph glyph-name="aogonek" unicode="&#x105;" horiz-adv-x="926" 
d="M649 7h85.001c-60.667 -59.333 -109.167 -122 -145.5 -188s-54.5 -122.333 -54.5 -169c0 -92.667 49.667 -139 149 -139c48 0 92 6.66699 132 20v-115c-13.333 -7.33301 -37 -15 -71 -23s-66.667 -12 -98 -12c-88 0 -155 21 -201 63s-69 97.833 -69 167.5
s24.167 141 72.5 214s115.166 133.5 200.499 181.5zM586.001 827c-84 -38 -139.999 -67.332 -167.999 -87.999s-49.167 -44.834 -63.5 -72.501s-21.5 -73.167 -21.5 -136.5v-139c0 -87.333 7.66699 -148.833 23 -184.5s41.666 -53.5 78.999 -53.5s69.333 10.833 96 32.5
s45 45.167 55 70.5v571zM145.002 1066c0 181.333 28.332 302 84.999 362s137.334 90 242.001 90s180.5 -25.333 227.5 -76s75.833 -132 86.5 -244c4.66699 -48 7 -107 7 -177v-1021h-206v130c-10.667 -36 -34 -68.833 -70 -98.5s-80.667 -44.5 -134 -44.5
c-170 0 -255.667 132.667 -257 398v146c0 86 23.5 159.5 70.5 220.5s176.833 130.5 389.5 208.5v116c0 128.667 -9.33301 206 -28 232s-50.5 39 -95.5 39s-75.167 -19.667 -90.5 -59s-23 -110.333 -23 -213v-52h-204v43z" />
    <glyph glyph-name="Cacute" unicode="&#x106;" horiz-adv-x="918" 
d="M124 1252c0 133.333 10.9971 231.332 32.9971 293.999s46 108.667 72 138c56.667 64 139.334 96.333 248.001 97c152 -0.666992 250 -67.667 294 -201c25.333 -76.667 38 -178.667 38 -306v-195h-203v196c0 112.667 -6.16699 188.834 -18.5 228.501
s-27.166 66 -44.499 79s-39.333 19.5 -66 19.5c-55.333 0 -93.5 -26.167 -114.5 -78.5s-31.5 -134.833 -31.5 -247.5v-762c0 -133.333 9.5 -226.5 28.5 -279.5s55.667 -79.5 110 -79.5s90.666 26.667 108.999 80s27.5 146.666 27.5 279.999v195h205v-193
c0 -184.667 -25.167 -320.5 -75.5 -407.5s-138.166 -130.5 -263.499 -130.5s-214.666 44.833 -267.999 134.5s-80 224.834 -80 405.501v733zM280.997 2007l419 174v-199l-419 -86v111z" />
    <glyph glyph-name="cacute" unicode="&#x107;" horiz-adv-x="880" 
d="M124 1008c0 130 9.8291 225.166 29.4961 285.499s41.834 104.5 66.501 132.5c54 61.333 133.333 92 238 92s180 -26 226 -78c45.333 -52 73.333 -129.333 84 -232c4 -44 6.33301 -96.333 7 -157v-104h-202v132c0 93.333 -3.66699 154.333 -11 183
c-26.667 42.667 -58.667 69.334 -96 80.001c-65.333 0 -105.666 -32.667 -120.999 -98c-10 -41.333 -15 -98.333 -15 -171v-638c0 -102.667 7.83301 -174.5 23.5 -215.5s45.834 -61.5 90.501 -61.5s77.334 14.5 98.001 43.5s31 105.5 31 229.5v145h202v-97
c0 -204.667 -27 -338.667 -81 -402s-136.333 -95 -247 -95c-174.667 0 -277 93.333 -307 280c-10.667 68.667 -16 150 -16 244v502zM276.996 1747l419 174v-199l-419 -86v111z" />
    <glyph glyph-name="Ccircumflex" unicode="&#x108;" horiz-adv-x="918" 
d="M124 1252c0 133.333 10.9971 231.332 32.9971 293.999s46 108.667 72 138c56.667 64 139.334 96.333 248.001 97c152 -0.666992 250 -67.667 294 -201c25.333 -76.667 38 -178.667 38 -306v-195h-203v196c0 112.667 -6.16699 188.834 -18.5 228.501
s-27.166 66 -44.499 79s-39.333 19.5 -66 19.5c-55.333 0 -93.5 -26.167 -114.5 -78.5s-31.5 -134.833 -31.5 -247.5v-762c0 -133.333 9.5 -226.5 28.5 -279.5s55.667 -79.5 110 -79.5s90.666 26.667 108.999 80s27.5 146.666 27.5 279.999v195h205v-193
c0 -184.667 -25.167 -320.5 -75.5 -407.5s-138.166 -130.5 -263.499 -130.5s-214.666 44.833 -267.999 134.5s-80 224.834 -80 405.501v733zM354.997 2146h232l153 -294h-183l-86 205l-86 -205h-184z" />
    <glyph glyph-name="ccircumflex" unicode="&#x109;" horiz-adv-x="880" 
d="M124 1008c0 130 9.8291 225.166 29.4961 285.499s41.834 104.5 66.501 132.5c54 61.333 133.333 92 238 92s180 -26 226 -78c45.333 -52 73.333 -129.333 84 -232c4 -44 6.33301 -96.333 7 -157v-104h-202v132c0 93.333 -3.66699 154.333 -11 183
c-26.667 42.667 -58.667 69.334 -96 80.001c-65.333 0 -105.666 -32.667 -120.999 -98c-10 -41.333 -15 -98.333 -15 -171v-638c0 -102.667 7.83301 -174.5 23.5 -215.5s45.834 -61.5 90.501 -61.5s77.334 14.5 98.001 43.5s31 105.5 31 229.5v145h202v-97
c0 -204.667 -27 -338.667 -81 -402s-136.333 -95 -247 -95c-174.667 0 -277 93.333 -307 280c-10.667 68.667 -16 150 -16 244v502zM349.996 1886h232l153 -294h-183l-86 205l-86 -205h-184z" />
    <glyph glyph-name="Cdotaccent" unicode="&#x10a;" horiz-adv-x="918" 
d="M369 2043h213v-178h-213v178zM124 1252c0 133.333 10.9971 231.332 32.9971 293.999s46 108.667 72 138c56.667 64 139.334 96.333 248.001 97c152 -0.666992 250 -67.667 294 -201c25.333 -76.667 38 -178.667 38 -306v-195h-203v196
c0 112.667 -6.16699 188.834 -18.5 228.501s-27.166 66 -44.499 79s-39.333 19.5 -66 19.5c-55.333 0 -93.5 -26.167 -114.5 -78.5s-31.5 -134.833 -31.5 -247.5v-762c0 -133.333 9.5 -226.5 28.5 -279.5s55.667 -79.5 110 -79.5s90.666 26.667 108.999 80
s27.5 146.666 27.5 279.999v195h205v-193c0 -184.667 -25.167 -320.5 -75.5 -407.5s-138.166 -130.5 -263.499 -130.5s-214.666 44.833 -267.999 134.5s-80 224.834 -80 405.501v733z" />
    <glyph glyph-name="cdotaccent" unicode="&#x10b;" horiz-adv-x="880" 
d="M364 1783h213v-178h-213v178zM124 1008c0 130 9.8291 225.166 29.4961 285.499s41.834 104.5 66.501 132.5c54 61.333 133.333 92 238 92s180 -26 226 -78c45.333 -52 73.333 -129.333 84 -232c4 -44 6.33301 -96.333 7 -157v-104h-202v132
c0 93.333 -3.66699 154.333 -11 183c-26.667 42.667 -58.667 69.334 -96 80.001c-65.333 0 -105.666 -32.667 -120.999 -98c-10 -41.333 -15 -98.333 -15 -171v-638c0 -102.667 7.83301 -174.5 23.5 -215.5s45.834 -61.5 90.501 -61.5s77.334 14.5 98.001 43.5
s31 105.5 31 229.5v145h202v-97c0 -204.667 -27 -338.667 -81 -402s-136.333 -95 -247 -95c-174.667 0 -277 93.333 -307 280c-10.667 68.667 -16 150 -16 244v502z" />
    <glyph glyph-name="Ccaron" unicode="&#x10c;" horiz-adv-x="918" 
d="M124 1252c0 133.333 10.9971 231.332 32.9971 293.999s46 108.667 72 138c56.667 64 139.334 96.333 248.001 97c152 -0.666992 250 -67.667 294 -201c25.333 -76.667 38 -178.667 38 -306v-195h-203v196c0 112.667 -6.16699 188.834 -18.5 228.501
s-27.166 66 -44.499 79s-39.333 19.5 -66 19.5c-55.333 0 -93.5 -26.167 -114.5 -78.5s-31.5 -134.833 -31.5 -247.5v-762c0 -133.333 9.5 -226.5 28.5 -279.5s55.667 -79.5 110 -79.5s90.666 26.667 108.999 80s27.5 146.666 27.5 279.999v195h205v-193
c0 -184.667 -25.167 -320.5 -75.5 -407.5s-138.166 -130.5 -263.499 -130.5s-214.666 44.833 -267.999 134.5s-80 224.834 -80 405.501v733zM556.997 2146h183l-153 -294h-232l-154 294h184l86 -205z" />
    <glyph glyph-name="ccaron" unicode="&#x10d;" horiz-adv-x="880" 
d="M124 1008c0 130 9.8291 225.166 29.4961 285.499s41.834 104.5 66.501 132.5c54 61.333 133.333 92 238 92s180 -26 226 -78c45.333 -52 73.333 -129.333 84 -232c4 -44 6.33301 -96.333 7 -157v-104h-202v132c0 93.333 -3.66699 154.333 -11 183
c-26.667 42.667 -58.667 69.334 -96 80.001c-65.333 0 -105.666 -32.667 -120.999 -98c-10 -41.333 -15 -98.333 -15 -171v-638c0 -102.667 7.83301 -174.5 23.5 -215.5s45.834 -61.5 90.501 -61.5s77.334 14.5 98.001 43.5s31 105.5 31 229.5v145h202v-97
c0 -204.667 -27 -338.667 -81 -402s-136.333 -95 -247 -95c-174.667 0 -277 93.333 -307 280c-10.667 68.667 -16 150 -16 244v502zM551.996 1886h183l-153 -294h-232l-154 294h184l86 -205z" />
    <glyph glyph-name="Dcaron" unicode="&#x10e;" horiz-adv-x="949" 
d="M143 1760h330.999c134.667 0 227.334 -41.5 278.001 -124.5s76 -200.833 76 -353.5l1 -773c0 -180.667 -27.667 -310.667 -83 -390s-148.333 -119 -279 -119h-324v1760zM621.999 1287c0 110 -13 189 -39 237s-68.667 72 -128 72h-106v-1429h106c40 0 71.333 8 94 24
c48.667 34.667 73 130 73 286v810zM550.999 2146h183l-153 -294h-232l-154 294h184l86 -205z" />
    <glyph glyph-name="dcaron" unicode="&#x10f;" horiz-adv-x="938" 
d="M586 1779l205.999 -0.000976562v-1779h-206v126c-37.333 -92.667 -106.333 -139 -207 -139c-138 0 -219 91 -243 273c-8 60.667 -12 134 -12 220v567c0 180.667 29.333 308.334 88 383.001c46.667 58.667 112.667 88 198 88c37.333 0 71.833 -11 103.5 -33
s55.834 -50.333 72.501 -85v379zM586.999 1050c0 105.333 -8.83301 181.001 -26.5 227.001s-51.667 69 -102 69s-84.333 -23.167 -102 -69.5s-26.5 -123.5 -26.5 -231.5v-606c0 -146.667 19.333 -235.334 58 -266.001c16 -12.667 38.667 -19 68 -19s53.333 8 72 24
c39.333 33.333 59 123.333 59 270v602zM928.999 1779h309v-231l-125 -432h-129l92 423h-147v240z" />
    <glyph glyph-name="Dcroat" unicode="&#x110;" horiz-adv-x="949" 
d="M143 1760h330.999c134.667 0 227.334 -41.5 278.001 -124.5s76 -200.833 76 -353.5l1 -773c0 -180.667 -27.667 -310.667 -83 -390s-148.333 -119 -279 -119h-324v1760zM621.999 1287c0 110 -13 189 -39 237s-68.667 72 -128 72h-106v-1429h106c40 0 71.333 8 94 24
c48.667 34.667 73 130 73 286v810zM22.999 977h501v-132h-501v132z" />
    <glyph glyph-name="dcroat" unicode="&#x111;" horiz-adv-x="938" 
d="M586 1779l205.999 -0.000976562v-1779h-206v126c-37.333 -92.667 -106.333 -139 -207 -139c-138 0 -219 91 -243 273c-8 60.667 -12 134 -12 220v567c0 180.667 29.333 308.334 88 383.001c46.667 58.667 112.667 88 198 88c37.333 0 71.833 -11 103.5 -33
s55.834 -50.333 72.501 -85v379zM586.999 1050c0 105.333 -8.83301 181.001 -26.5 227.001s-51.667 69 -102 69s-84.333 -23.167 -102 -69.5s-26.5 -123.5 -26.5 -231.5v-606c0 -146.667 19.333 -235.334 58 -266.001c16 -12.667 38.667 -19 68 -19s53.333 8 72 24
c39.333 33.333 59 123.333 59 270v602zM414.999 1688h501v-132h-501v132z" />
    <glyph glyph-name="Emacron" unicode="&#x112;" horiz-adv-x="771" 
d="M158 2004h501v-132h-501v132zM144 1760h526v-172h-319v-602h302v-172h-302v-642h323v-172h-530v1760z" />
    <glyph glyph-name="emacron" unicode="&#x113;" horiz-adv-x="893" 
d="M199 1744h501v-132h-501v132zM124 1035c0 189.333 33.9971 321 101.997 395c53.333 58.667 132 88 236 88c150.667 0 245.334 -65 284.001 -195c21.333 -73.333 32 -172.333 32 -297v-283h-448v-299c0 -130 10.333 -211 31 -243s53.334 -48 98.001 -48
s74.5 18.667 89.5 56s22.833 77.833 23.5 121.5s1 80.5 1 110.5v121h201v-64c0 -159.333 -11.167 -271 -33.5 -335s-56.166 -110.167 -101.499 -138.5s-101.5 -42.5 -168.5 -42.5s-120.667 8.5 -161 25.5s-72.333 39.5 -96 67.5s-44.5 72.667 -62.5 134s-27 160 -27 296v530
zM572.997 1073c0 106.667 -3.83301 171 -11.5 193s-17.5 41.333 -29.5 58s-33.667 25 -65 25c-60 0 -98 -25.167 -114 -75.5s-24 -119.5 -24 -207.5v-184h244v191z" />
    <glyph glyph-name="Ebreve" unicode="&#x114;" horiz-adv-x="771" 
d="M543 2116h106.001v-13c0 -72.667 -19.667 -128.5 -59 -167.5s-97.833 -58.5 -175.5 -58.5s-136.334 19.333 -176.001 58s-59.5 94 -59.5 166v15h106c0 -80.667 43.333 -121 130 -121c38.667 0 69.667 8.5 93 25.5s35 48.833 35 95.5zM144.001 1760h526v-172h-319v-602
h302v-172h-302v-642h323v-172h-530v1760z" />
    <glyph glyph-name="ebreve" unicode="&#x115;" horiz-adv-x="893" 
d="M584 1856h106.001v-13c0 -72.667 -19.667 -128.5 -59 -167.5s-97.833 -58.5 -175.5 -58.5s-136.334 19.333 -176.001 58s-59.5 94 -59.5 166v15h106c0 -80.667 43.333 -121 130 -121c38.667 0 69.667 8.5 93 25.5s35 48.833 35 95.5zM124.001 1035
c0 189.333 33.9971 321 101.997 395c53.333 58.667 132 88 236 88c150.667 0 245.334 -65 284.001 -195c21.333 -73.333 32 -172.333 32 -297v-283h-448v-299c0 -130 10.333 -211 31 -243s53.334 -48 98.001 -48s74.5 18.667 89.5 56s22.833 77.833 23.5 121.5
s1 80.5 1 110.5v121h201v-64c0 -159.333 -11.167 -271 -33.5 -335s-56.166 -110.167 -101.499 -138.5s-101.5 -42.5 -168.5 -42.5s-120.667 8.5 -161 25.5s-72.333 39.5 -96 67.5s-44.5 72.667 -62.5 134s-27 160 -27 296v530zM572.998 1073
c0 106.667 -3.83301 171 -11.5 193s-17.5 41.333 -29.5 58s-33.667 25 -65 25c-60 0 -98 -25.167 -114 -75.5s-24 -119.5 -24 -207.5v-184h244v191z" />
    <glyph glyph-name="Edotaccent" unicode="&#x116;" horiz-adv-x="771" 
d="M314 2043h213v-178h-213v178zM144 1760h526v-172h-319v-602h302v-172h-302v-642h323v-172h-530v1760z" />
    <glyph glyph-name="edotaccent" unicode="&#x117;" horiz-adv-x="893" 
d="M355 1783h213v-178h-213v178zM124 1035c0 189.333 33.9971 321 101.997 395c53.333 58.667 132 88 236 88c150.667 0 245.334 -65 284.001 -195c21.333 -73.333 32 -172.333 32 -297v-283h-448v-299c0 -130 10.333 -211 31 -243s53.334 -48 98.001 -48
s74.5 18.667 89.5 56s22.833 77.833 23.5 121.5s1 80.5 1 110.5v121h201v-64c0 -159.333 -11.167 -271 -33.5 -335s-56.166 -110.167 -101.499 -138.5s-101.5 -42.5 -168.5 -42.5s-120.667 8.5 -161 25.5s-72.333 39.5 -96 67.5s-44.5 72.667 -62.5 134s-27 160 -27 296v530
zM572.997 1073c0 106.667 -3.83301 171 -11.5 193s-17.5 41.333 -29.5 58s-33.667 25 -65 25c-60 0 -98 -25.167 -114 -75.5s-24 -119.5 -24 -207.5v-184h244v191z" />
    <glyph glyph-name="Eogonek" unicode="&#x118;" horiz-adv-x="771" 
d="M144 1760h526v-172h-319v-602h302v-172h-302v-642h323v-172h-530v1760zM511 7h85.001c-60.667 -59.333 -109.167 -122 -145.5 -188s-54.5 -122.333 -54.5 -169c0 -92.667 49.667 -139 149 -139c48 0 92 6.66699 132 20v-115c-13.333 -7.33301 -37 -15 -71 -23
s-66.667 -12 -98 -12c-88 0 -155 21 -201 63s-69 97.833 -69 167.5s24.167 141 72.5 214s115.166 133.5 200.499 181.5z" />
    <glyph glyph-name="eogonek" unicode="&#x119;" horiz-adv-x="893" 
d="M124 1035c0 189.333 33.9971 321 101.997 395c53.333 58.667 132 88 236 88c150.667 0 245.334 -65 284.001 -195c21.333 -73.333 32 -172.333 32 -297v-283h-448v-299c0 -130 10.333 -211 31 -243s53.334 -48 98.001 -48s74.5 18.667 89.5 56s22.833 77.833 23.5 121.5
s1 80.5 1 110.5v121h201v-64c0 -159.333 -11.167 -271 -33.5 -335s-56.166 -110.167 -101.499 -138.5s-101.5 -42.5 -168.5 -42.5s-120.667 8.5 -161 25.5s-72.333 39.5 -96 67.5s-44.5 72.667 -62.5 134s-27 160 -27 296v530zM572.997 1073
c0 106.667 -3.83301 171 -11.5 193s-17.5 41.333 -29.5 58s-33.667 25 -65 25c-60 0 -98 -25.167 -114 -75.5s-24 -119.5 -24 -207.5v-184h244v191zM483.997 7h85.001c-60.667 -59.333 -109.167 -122 -145.5 -188s-54.5 -122.333 -54.5 -169c0 -92.667 49.667 -139 149 -139
c48 0 92 6.66699 132 20v-115c-13.333 -7.33301 -37 -15 -71 -23s-66.667 -12 -98 -12c-88 0 -155 21 -201 63s-69 97.833 -69 167.5s24.167 141 72.5 214s115.166 133.5 200.499 181.5z" />
    <glyph glyph-name="Ecaron" unicode="&#x11a;" horiz-adv-x="771" 
d="M144 1760h526v-172h-319v-602h302v-172h-302v-642h323v-172h-530v1760zM500 2146h183l-153 -294h-232l-154 294h184l86 -205z" />
    <glyph glyph-name="ecaron" unicode="&#x11b;" horiz-adv-x="893" 
d="M124 1035c0 189.333 33.9971 321 101.997 395c53.333 58.667 132 88 236 88c150.667 0 245.334 -65 284.001 -195c21.333 -73.333 32 -172.333 32 -297v-283h-448v-299c0 -130 10.333 -211 31 -243s53.334 -48 98.001 -48s74.5 18.667 89.5 56s22.833 77.833 23.5 121.5
s1 80.5 1 110.5v121h201v-64c0 -159.333 -11.167 -271 -33.5 -335s-56.166 -110.167 -101.499 -138.5s-101.5 -42.5 -168.5 -42.5s-120.667 8.5 -161 25.5s-72.333 39.5 -96 67.5s-44.5 72.667 -62.5 134s-27 160 -27 296v530zM572.997 1073
c0 106.667 -3.83301 171 -11.5 193s-17.5 41.333 -29.5 58s-33.667 25 -65 25c-60 0 -98 -25.167 -114 -75.5s-24 -119.5 -24 -207.5v-184h244v191zM542.997 1886h183l-153 -294h-232l-154 294h184l86 -205z" />
    <glyph glyph-name="Gcircumflex" unicode="&#x11c;" horiz-adv-x="942" 
d="M124 1262c0 258.667 61.333 419.333 184 482c48 24 100.667 36.333 158 37c107.333 0 185 -22.833 233 -68.5s79 -106 93 -181s21 -166.167 21 -273.5v-136h-200v229c0 90 -9.16699 154.333 -27.5 193s-54.333 58 -108 58s-91.5 -24.333 -113.5 -73
s-33 -134.667 -33 -258v-740c0 -140.667 9.66699 -238.5 29 -293.5s57.5 -82.5 114.5 -82.5s96 28.333 117 85s31.5 155 31.5 295v229h-143v160h333v-924h-109l-28 136c-39.333 -102 -114.5 -153 -225.5 -153s-193.167 43.167 -246.5 129.5s-80 223.5 -80 411.5v738z
M365 2146h232l153 -294h-183l-86 205l-86 -205h-184z" />
    <glyph glyph-name="gcircumflex" unicode="&#x11d;" horiz-adv-x="929" 
d="M400 1518c94 0 155 -42.668 183 -128.001v110h205v-1360c0 -178.667 -67.333 -293 -202 -343c-46.667 -17.333 -100.667 -26 -162 -26c-122.667 0 -224.334 32 -305.001 96l74 140c72.667 -49.333 149.667 -74 231 -74c54 0 94 17 120 51s39 79.667 39 137v143
c-18 -46.667 -43 -79 -75 -97c-33.333 -18 -74.666 -27 -123.999 -27c-100 0 -168.667 42.333 -206 127s-56 198.334 -56 341.001v430c0 320 92.667 480 278 480zM583 1068c0 97.333 -8.83203 168.166 -26.499 212.499s-48.667 66.5 -93 66.5s-75.5 -12.667 -93.5 -38
s-29.5 -57 -34.5 -95s-7.5 -86 -7.5 -144v-467c0 -106 9.66699 -182.5 29 -229.5s55.666 -70.5 108.999 -70.5c28 0 50 8 66 24c33.333 32.667 50.333 125.334 51 278.001v463zM373.001 1886h232l153 -294h-183l-86 205l-86 -205h-184z" />
    <glyph glyph-name="Gbreve" unicode="&#x11e;" horiz-adv-x="942" 
d="M608 2116h106.001v-13c0 -72.667 -19.667 -128.5 -59 -167.5s-97.833 -58.5 -175.5 -58.5s-136.334 19.333 -176.001 58s-59.5 94 -59.5 166v15h106c0 -80.667 43.333 -121 130 -121c38.667 0 69.667 8.5 93 25.5s35 48.833 35 95.5zM124.001 1262
c0 258.667 61.333 419.333 184 482c48 24 100.667 36.333 158 37c107.333 0 185 -22.833 233 -68.5s79 -106 93 -181s21 -166.167 21 -273.5v-136h-200v229c0 90 -9.16699 154.333 -27.5 193s-54.333 58 -108 58s-91.5 -24.333 -113.5 -73s-33 -134.667 -33 -258v-740
c0 -140.667 9.66699 -238.5 29 -293.5s57.5 -82.5 114.5 -82.5s96 28.333 117 85s31.5 155 31.5 295v229h-143v160h333v-924h-109l-28 136c-39.333 -102 -114.5 -153 -225.5 -153s-193.167 43.167 -246.5 129.5s-80 223.5 -80 411.5v738z" />
    <glyph glyph-name="gbreve" unicode="&#x11f;" horiz-adv-x="929" 
d="M613 1856h106.001v-13c0 -72.667 -19.667 -128.5 -59 -167.5s-97.833 -58.5 -175.5 -58.5s-136.334 19.333 -176.001 58s-59.5 94 -59.5 166v15h106c0 -80.667 43.333 -121 130 -121c38.667 0 69.667 8.5 93 25.5s35 48.833 35 95.5zM400.001 1518
c94 0 155 -42.668 183 -128.001v110h205v-1360c0 -178.667 -67.333 -293 -202 -343c-46.667 -17.333 -100.667 -26 -162 -26c-122.667 0 -224.334 32 -305.001 96l74 140c72.667 -49.333 149.667 -74 231 -74c54 0 94 17 120 51s39 79.667 39 137v143
c-18 -46.667 -43 -79 -75 -97c-33.333 -18 -74.666 -27 -123.999 -27c-100 0 -168.667 42.333 -206 127s-56 198.334 -56 341.001v430c0 320 92.667 480 278 480zM583.001 1068c0 97.333 -8.83203 168.166 -26.499 212.499s-48.667 66.5 -93 66.5s-75.5 -12.667 -93.5 -38
s-29.5 -57 -34.5 -95s-7.5 -86 -7.5 -144v-467c0 -106 9.66699 -182.5 29 -229.5s55.666 -70.5 108.999 -70.5c28 0 50 8 66 24c33.333 32.667 50.333 125.334 51 278.001v463z" />
    <glyph glyph-name="Gdotaccent" unicode="&#x120;" horiz-adv-x="942" 
d="M379 2043h213v-178h-213v178zM124 1262c0 258.667 61.333 419.333 184 482c48 24 100.667 36.333 158 37c107.333 0 185 -22.833 233 -68.5s79 -106 93 -181s21 -166.167 21 -273.5v-136h-200v229c0 90 -9.16699 154.333 -27.5 193s-54.333 58 -108 58
s-91.5 -24.333 -113.5 -73s-33 -134.667 -33 -258v-740c0 -140.667 9.66699 -238.5 29 -293.5s57.5 -82.5 114.5 -82.5s96 28.333 117 85s31.5 155 31.5 295v229h-143v160h333v-924h-109l-28 136c-39.333 -102 -114.5 -153 -225.5 -153s-193.167 43.167 -246.5 129.5
s-80 223.5 -80 411.5v738z" />
    <glyph glyph-name="gdotaccent" unicode="&#x121;" horiz-adv-x="929" 
d="M384 1783h213v-178h-213v178zM400 1518c94 0 155 -42.668 183 -128.001v110h205v-1360c0 -178.667 -67.333 -293 -202 -343c-46.667 -17.333 -100.667 -26 -162 -26c-122.667 0 -224.334 32 -305.001 96l74 140c72.667 -49.333 149.667 -74 231 -74c54 0 94 17 120 51
s39 79.667 39 137v143c-18 -46.667 -43 -79 -75 -97c-33.333 -18 -74.666 -27 -123.999 -27c-100 0 -168.667 42.333 -206 127s-56 198.334 -56 341.001v430c0 320 92.667 480 278 480zM583 1068c0 97.333 -8.83203 168.166 -26.499 212.499s-48.667 66.5 -93 66.5
s-75.5 -12.667 -93.5 -38s-29.5 -57 -34.5 -95s-7.5 -86 -7.5 -144v-467c0 -106 9.66699 -182.5 29 -229.5s55.666 -70.5 108.999 -70.5c28 0 50 8 66 24c33.333 32.667 50.333 125.334 51 278.001v463z" />
    <glyph glyph-name="Gcommaaccent" unicode="&#x122;" horiz-adv-x="942" 
d="M345 -155h234v-218l-85 -297h-90l49 288h-108v227zM124 1262c0 258.667 61.333 419.333 184 482c48 24 100.667 36.333 158 37c107.333 0 185 -22.833 233 -68.5s79 -106 93 -181s21 -166.167 21 -273.5v-136h-200v229c0 90 -9.16699 154.333 -27.5 193
s-54.333 58 -108 58s-91.5 -24.333 -113.5 -73s-33 -134.667 -33 -258v-740c0 -140.667 9.66699 -238.5 29 -293.5s57.5 -82.5 114.5 -82.5s96 28.333 117 85s31.5 155 31.5 295v229h-143v160h333v-924h-109l-28 136c-39.333 -102 -114.5 -153 -225.5 -153
s-193.167 43.167 -246.5 129.5s-80 223.5 -80 411.5v738z" />
    <glyph glyph-name="gcommaaccent" unicode="&#x123;" horiz-adv-x="929" 
d="M406.996 1947.8h140.395v-130.795l-50.998 -178.192h-53.998l29.3994 172.793h-64.7979v136.194zM400 1518c94 0 155 -42.668 183 -128.001v110h205v-1360c0 -178.667 -67.333 -293 -202 -343c-46.667 -17.333 -100.667 -26 -162 -26c-122.667 0 -224.334 32 -305.001 96
l74 140c72.667 -49.333 149.667 -74 231 -74c54 0 94 17 120 51s39 79.667 39 137v143c-18 -46.667 -43 -79 -75 -97c-33.333 -18 -74.666 -27 -123.999 -27c-100 0 -168.667 42.333 -206 127s-56 198.334 -56 341.001v430c0 320 92.667 480 278 480zM583 1068
c0 97.333 -8.83203 168.166 -26.499 212.499s-48.667 66.5 -93 66.5s-75.5 -12.667 -93.5 -38s-29.5 -57 -34.5 -95s-7.5 -86 -7.5 -144v-467c0 -106 9.66699 -182.5 29 -229.5s55.666 -70.5 108.999 -70.5c28 0 50 8 66 24c33.333 32.667 50.333 125.334 51 278.001v463z
" />
    <glyph glyph-name="Hcircumflex" unicode="&#x124;" horiz-adv-x="984" 
d="M633 1760h207v-1760h-207v853h-282v-853h-207v1760h207v-738h282v738zM381 2146h232l153 -294h-183l-86 205l-86 -205h-184z" />
    <glyph glyph-name="hcircumflex" unicode="&#x125;" horiz-adv-x="969" 
d="M147 1779h205v-438c14 48.667 43 90.5 87 125.5s99.5 52.5 166.5 52.5s121.5 -27.167 163.5 -81.5s63 -134.833 63 -241.5v-1196h-205v1179c0 108.667 -41 163 -123 163c-44.667 0 -81.167 -15.833 -109.5 -47.5s-42.5 -78.5 -42.5 -140.5v-1154h-205v1779zM369 2140h232
l153 -294h-183l-86 205l-86 -205h-184z" />
    <glyph glyph-name="Hbar" unicode="&#x126;" horiz-adv-x="984" 
d="M351 1398v-376h282v376h-282zM633 1760h207v-256h111v-106h-111v-1398h-207v853h-282v-853h-207v1398h-89v106h89v256h207v-256h282v256z" />
    <glyph glyph-name="hbar" unicode="&#x127;" horiz-adv-x="969" 
d="M147 1779h205v-87h209v-116h-209v-235c14 48.667 43 90.5 87 125.5s99.5 52.5 166.5 52.5s121.5 -27.167 163.5 -81.5s63 -134.833 63 -241.5v-1196h-205v1179c0 108.667 -41 163 -123 163c-44.667 0 -81.167 -15.833 -109.5 -47.5s-42.5 -78.5 -42.5 -140.5v-1154h-205
v1576h-147v116h147v87z" />
    <glyph glyph-name="Itilde" unicode="&#x128;" horiz-adv-x="527" 
d="M-49 1952c18 62 41.6689 103.833 71.002 125.5s62.166 32.5 98.499 32.5s87.333 -12.333 153 -37s105.5 -37 119.5 -37h4c11.333 2 21.166 7.5 29.499 16.5s17.166 27.167 26.499 54.5l123 -28l-9 -37c-16.667 -63.333 -36.667 -105.833 -60 -127.5
s-52.666 -32.5 -87.999 -32.5s-84.5 13.667 -147.5 41s-104 41 -123 41s-33.667 -1.16699 -44 -3.5s-24.5 -21.5 -42.5 -57.5zM160.002 1760h207v-1760h-207v1760z" />
    <glyph glyph-name="itilde" unicode="&#x129;" horiz-adv-x="504" 
d="M-68 1692c18 62 41.6689 103.833 71.002 125.5s62.166 32.5 98.499 32.5s87.333 -12.333 153 -37s105.5 -37 119.5 -37h4c11.333 2 21.166 7.5 29.499 16.5s17.166 27.167 26.499 54.5l123 -28l-9 -37c-16.667 -63.333 -36.667 -105.833 -60 -127.5
s-52.666 -32.5 -87.999 -32.5s-84.5 13.667 -147.5 41s-104 41 -123 41s-33.667 -1.16699 -44 -3.5s-24.5 -21.5 -42.5 -57.5zM149.002 1500h206v-1500h-206v1500z" />
    <glyph glyph-name="Imacron" unicode="&#x12a;" horiz-adv-x="527" 
d="M6 2004h501v-132h-501v132zM160 1760h207v-1760h-207v1760z" />
    <glyph glyph-name="imacron" unicode="&#x12b;" horiz-adv-x="504" 
d="M-13 1744h501v-132h-501v132zM149 1500h206v-1500h-206v1500z" />
    <glyph glyph-name="Ibreve" unicode="&#x12c;" horiz-adv-x="527" 
d="M391 2116h106.001v-13c0 -72.667 -19.667 -128.5 -59 -167.5s-97.833 -58.5 -175.5 -58.5s-136.334 19.333 -176.001 58s-59.5 94 -59.5 166v15h106c0 -80.667 43.333 -121 130 -121c38.667 0 69.667 8.5 93 25.5s35 48.833 35 95.5zM160.001 1760h207v-1760h-207v1760z
" />
    <glyph glyph-name="ibreve" unicode="&#x12d;" horiz-adv-x="504" 
d="M372 1856h106.001v-13c0 -72.667 -19.667 -128.5 -59 -167.5s-97.833 -58.5 -175.5 -58.5s-136.334 19.333 -176.001 58s-59.5 94 -59.5 166v15h106c0 -80.667 43.333 -121 130 -121c38.667 0 69.667 8.5 93 25.5s35 48.833 35 95.5zM149.001 1500h206v-1500h-206v1500z
" />
    <glyph glyph-name="Iogonek" unicode="&#x12e;" horiz-adv-x="527" 
d="M251 7h85.001c-60.667 -59.333 -109.167 -122 -145.5 -188s-54.5 -122.333 -54.5 -169c0 -92.667 49.667 -139 149 -139c48 0 92 6.66699 132 20v-115c-13.333 -7.33301 -37 -15 -71 -23s-66.667 -12 -98 -12c-88 0 -155 21 -201 63s-69 97.833 -69 167.5
s24.167 141 72.5 214s115.166 133.5 200.499 181.5zM160.001 1760h207v-1760h-207v1760z" />
    <glyph glyph-name="iogonek" unicode="&#x12f;" horiz-adv-x="504" 
d="M143 1783h213v-178h-213v178zM247 7h85.001c-60.667 -59.333 -109.167 -122 -145.5 -188s-54.5 -122.333 -54.5 -169c0 -92.667 49.667 -139 149 -139c48 0 92 6.66699 132 20v-115c-13.333 -7.33301 -37 -15 -71 -23s-66.667 -12 -98 -12c-88 0 -155 21 -201 63
s-69 97.833 -69 167.5s24.167 141 72.5 214s115.166 133.5 200.499 181.5zM149.001 1500h206v-1500h-206v1500z" />
    <glyph glyph-name="Idotaccent" unicode="&#x130;" horiz-adv-x="527" 
d="M162 2043h213v-178h-213v178zM160 1760h207v-1760h-207v1760z" />
    <glyph glyph-name="dotlessi" unicode="&#x131;" horiz-adv-x="504" 
d="M149 1500h206v-1500h-206v1500z" />
    <glyph glyph-name="IJ" unicode="&#x132;" horiz-adv-x="1385" 
d="M1038 1760h207v-1334c0 -298 -104.667 -447 -314 -447c-110.667 0 -192 33.833 -244 101.5s-78 170.5 -78 308.5v230h202v-217c0 -89.333 4 -144 12 -164s16 -36 24 -48c16 -23.333 42.5 -35 79.5 -35s63.333 12.5 79 37.5s25 55.667 28 92s4.5 80.833 4.5 133.5v1342z
M160 1760h207v-1760h-207v1760z" />
    <glyph glyph-name="ij" unicode="&#x133;" horiz-adv-x="1036" 
d="M583 -56c9.33301 -1.33301 19 -1.99902 29 -1.99902s17.667 0.333008 23 1c33.333 3.33301 50 25.666 50 66.999v1490h205v-1480c0 -78 -16.167 -135 -48.5 -171s-71.5 -55.333 -117.5 -58c-14.667 -1.33301 -40.167 -2 -76.5 -2s-59.833 3.66699 -70.5 11v144h6z
M683 1826h206v-188h-206v188zM150 1500h205v-1500h-205v1500zM150 1826h206v-188h-206v188z" />
    <glyph glyph-name="Jcircumflex" unicode="&#x134;" horiz-adv-x="858" 
d="M495 2146h232l153 -294h-183l-86 205l-86 -205h-184zM511 1760h207v-1334c0 -298 -104.667 -447 -314 -447c-110.667 0 -192 33.833 -244 101.5s-78 170.5 -78 308.5v230h202v-217c0 -89.333 4 -144 12 -164s16 -36 24 -48c16 -23.333 42.5 -35 79.5 -35
s63.333 12.5 79 37.5s25 55.667 28 92s4.5 80.833 4.5 133.5v1342z" />
    <glyph glyph-name="jcircumflex" unicode="&#x135;" horiz-adv-x="540" 
d="M86 -6c9.33301 -1.33301 19.168 -1.99707 29.501 -1.99707s18.166 0.333008 23.499 1c32.667 3.33301 49 25.666 49 66.999v1440h206v-1430c0 -78.667 -16.167 -135.834 -48.5 -171.501s-71.833 -54.834 -118.5 -57.501c-14.667 -1.33301 -40.167 -2 -76.5 -2
s-59.833 3.66699 -70.5 11v144h6zM183.002 1886h232l153 -294h-183l-86 205l-86 -205h-184z" />
    <glyph glyph-name="Kcommaaccent" unicode="&#x136;" horiz-adv-x="894" 
d="M317 -155h234v-218l-85 -297h-90l49 288h-108v227zM664 1760h208l-328 -869l351 -891h-216l-326 842v-842h-209v1760h207v-839z" />
    <glyph glyph-name="kcommaaccent" unicode="&#x137;" horiz-adv-x="866" 
d="M297 -155h234v-218l-85 -297h-90l49 288h-108v227zM147 1779h205v-992l295 713h207l-316 -741l333 -759h-211l-308 730v-730h-205v1779z" />
    <glyph glyph-name="kgreenlandic" unicode="&#x138;" horiz-adv-x="866" 
d="M147 1500h205v-713l295 713h207l-316 -741l333 -759h-211l-308 730v-730h-205v1500z" />
    <glyph glyph-name="Lacute" unicode="&#x139;" horiz-adv-x="712" 
d="M144 1760h207v-1589h325v-171h-532v1760zM174 2007l419 174v-199l-419 -86v111z" />
    <glyph glyph-name="lacute" unicode="&#x13a;" horiz-adv-x="501" 
d="M148 1779h205v-1779h-205v1779zM61 2007l419 174v-199l-419 -86v111z" />
    <glyph glyph-name="Lcommaaccent" unicode="&#x13b;" horiz-adv-x="712" 
d="M267 -155h234v-218l-85 -297h-90l49 288h-108v227zM144 1760h207v-1589h325v-171h-532v1760z" />
    <glyph glyph-name="lcommaaccent" unicode="&#x13c;" horiz-adv-x="501" 
d="M114 -155h234v-218l-85 -297h-90l49 288h-108v227zM148 1779h205v-1779h-205v1779z" />
    <glyph glyph-name="Lcaron" unicode="&#x13d;" horiz-adv-x="742" 
d="M144 1760h207v-1589h325v-171h-532v1760zM625 1753h235v-218l-86 -297h-90l49 288h-108v227z" />
    <glyph glyph-name="lcaron" unicode="&#x13e;" horiz-adv-x="501" 
d="M114 -155h234v-218l-85 -297h-90l49 288h-108v227zM148 1779h205v-1779h-205v1779z" />
    <glyph glyph-name="Ldot" unicode="&#x13f;" horiz-adv-x="712" 
d="M554 1098h200v-208h-200v208zM144 1760h207v-1589h325v-171h-532v1760z" />
    <glyph glyph-name="ldot" unicode="&#x140;" horiz-adv-x="981" 
d="M649 977h200v-208h-200v208zM148 1779h205v-1779h-205v1779z" />
    <glyph glyph-name="Lslash" unicode="&#x141;" horiz-adv-x="748" 
d="M144 1760h207v-703l203 82v-152l-203 -82v-734h325v-171h-532v822l-145 -58v152l145 58v786z" />
    <glyph glyph-name="lslash" unicode="&#x142;" horiz-adv-x="691" 
d="M216 1779h205v-705l180 79v-167l-180 -79v-907h-205v816l-141 -62v167l141 62v796z" />
    <glyph glyph-name="Nacute" unicode="&#x143;" horiz-adv-x="1014" 
d="M687 1760h183v-1760h-152l-395 1208l12 -444v-764h-191v1760h156l408 -1198l-21 509v689zM318 2007l419 174v-199l-419 -86v111z" />
    <glyph glyph-name="nacute" unicode="&#x144;" horiz-adv-x="970" 
d="M352 1341c13.333 48.667 42.498 90.5 87.498 125.5s101 52.5 168 52.5s121.333 -27.167 163 -81.5s62.5 -134.833 62.5 -241.5v-1196h-205v1195c0 50.667 -11.667 88.667 -35 114s-55.666 38 -96.999 38s-75.666 -14.333 -102.999 -43s-41 -71.667 -41 -129v-1175h-205
v1500h205v-159zM295.998 1747l419 174v-199l-419 -86v111z" />
    <glyph glyph-name="Ncommaaccent" unicode="&#x145;" horiz-adv-x="1014" 
d="M371 -155h234v-218l-85 -297h-90l49 288h-108v227zM687 1760h183v-1760h-152l-395 1208l12 -444v-764h-191v1760h156l408 -1198l-21 509v689z" />
    <glyph glyph-name="ncommaaccent" unicode="&#x146;" horiz-adv-x="970" 
d="M349 -155h234v-218l-85 -297h-90l49 288h-108v227zM352 1341c13.333 48.667 42.498 90.5 87.498 125.5s101 52.5 168 52.5s121.333 -27.167 163 -81.5s62.5 -134.833 62.5 -241.5v-1196h-205v1195c0 50.667 -11.667 88.667 -35 114s-55.666 38 -96.999 38
s-75.666 -14.333 -102.999 -43s-41 -71.667 -41 -129v-1175h-205v1500h205v-159z" />
    <glyph glyph-name="Ncaron" unicode="&#x147;" horiz-adv-x="1014" 
d="M687 1760h183v-1760h-152l-395 1208l12 -444v-764h-191v1760h156l408 -1198l-21 509v689zM593 2146h183l-153 -294h-232l-154 294h184l86 -205z" />
    <glyph glyph-name="ncaron" unicode="&#x148;" horiz-adv-x="970" 
d="M352 1341c13.333 48.667 42.498 90.5 87.498 125.5s101 52.5 168 52.5s121.333 -27.167 163 -81.5s62.5 -134.833 62.5 -241.5v-1196h-205v1195c0 50.667 -11.667 88.667 -35 114s-55.666 38 -96.999 38s-75.666 -14.333 -102.999 -43s-41 -71.667 -41 -129v-1175h-205
v1500h205v-159zM570.998 1886h183l-153 -294h-232l-154 294h184l86 -205z" />
    <glyph glyph-name="Omacron" unicode="&#x14c;" horiz-adv-x="944" 
d="M124 1282c0 200 35.998 337.333 107.998 412c56.667 58.667 139 88 247 88c157.333 0 258 -64.667 302 -194c26 -76.667 39 -178.667 39 -306v-776c0 -183.333 -25.667 -316.833 -77 -400.5s-141.166 -125.5 -269.499 -125.5s-218.666 42 -270.999 126
s-78.5 217.333 -78.5 400v776zM612.998 1294c0 112.667 -9.00195 192.5 -27.002 239.5s-54.333 70.5 -109 70.5s-92.667 -24 -114 -72s-32 -127 -32 -237v-791c0 -134 9.33301 -225.167 28 -273.5s56.334 -72.5 113.001 -72.5s94.334 24.5 113.001 73.5s28 139.833 28 272.5
v790zM213.996 2006h501v-132h-501v132z" />
    <glyph glyph-name="omacron" unicode="&#x14d;" horiz-adv-x="914" 
d="M124 1027c0 243.333 56.001 394.999 168.001 454.999c45.333 24 98 36 158 36c156.667 0 256.667 -63 300 -189c26.667 -79.333 40 -180 40 -302v-531c0 -210.667 -28.333 -349 -85 -415s-138.667 -99 -246 -99c-156.667 0 -256.334 66.667 -299.001 200
c-24 76.667 -36 181.334 -36 314.001v531zM584.001 1068c0 142.667 -20.334 229.334 -61.001 260.001c-16.667 12.667 -38.334 19 -65.001 19c-54 0 -88.833 -24.333 -104.5 -73s-23.5 -117.334 -23.5 -206.001v-629c0 -147.333 20.667 -236.333 62 -267
c16.667 -12.667 37.334 -19 62.001 -19h4c52.667 0 86.834 24.833 102.501 74.5s23.5 120.167 23.5 211.5v629zM199 1744h501v-132h-501v132z" />
    <glyph glyph-name="Obreve" unicode="&#x14e;" horiz-adv-x="944" 
d="M599 2118h106.001v-13c0 -72.667 -19.667 -128.5 -59 -167.5s-97.833 -58.5 -175.5 -58.5s-136.334 19.333 -176.001 58s-59.5 94 -59.5 166v15h106c0 -80.667 43.333 -121 130 -121c38.667 0 69.667 8.5 93 25.5s35 48.833 35 95.5zM124.001 1282
c0 200 35.998 337.333 107.998 412c56.667 58.667 139 88 247 88c157.333 0 258 -64.667 302 -194c26 -76.667 39 -178.667 39 -306v-776c0 -183.333 -25.667 -316.833 -77 -400.5s-141.166 -125.5 -269.499 -125.5s-218.666 42 -270.999 126s-78.5 217.333 -78.5 400v776z
M612.999 1294c0 112.667 -9.00195 192.5 -27.002 239.5s-54.333 70.5 -109 70.5s-92.667 -24 -114 -72s-32 -127 -32 -237v-791c0 -134 9.33301 -225.167 28 -273.5s56.334 -72.5 113.001 -72.5s94.334 24.5 113.001 73.5s28 139.833 28 272.5v790z" />
    <glyph glyph-name="obreve" unicode="&#x14f;" horiz-adv-x="914" 
d="M584 1856h106.001v-13c0 -72.667 -19.667 -128.5 -59 -167.5s-97.833 -58.5 -175.5 -58.5s-136.334 19.333 -176.001 58s-59.5 94 -59.5 166v15h106c0 -80.667 43.333 -121 130 -121c38.667 0 69.667 8.5 93 25.5s35 48.833 35 95.5zM124.001 1027
c0 243.333 56.001 394.999 168.001 454.999c45.333 24 98 36 158 36c156.667 0 256.667 -63 300 -189c26.667 -79.333 40 -180 40 -302v-531c0 -210.667 -28.333 -349 -85 -415s-138.667 -99 -246 -99c-156.667 0 -256.334 66.667 -299.001 200
c-24 76.667 -36 181.334 -36 314.001v531zM584.002 1068c0 142.667 -20.334 229.334 -61.001 260.001c-16.667 12.667 -38.334 19 -65.001 19c-54 0 -88.833 -24.333 -104.5 -73s-23.5 -117.334 -23.5 -206.001v-629c0 -147.333 20.667 -236.333 62 -267
c16.667 -12.667 37.334 -19 62.001 -19h4c52.667 0 86.834 24.833 102.501 74.5s23.5 120.167 23.5 211.5v629z" />
    <glyph glyph-name="Ohungarumlaut" unicode="&#x150;" horiz-adv-x="944" 
d="M124 1282c0 200 35.998 337.333 107.998 412c56.667 58.667 139 88 247 88c157.333 0 258 -64.667 302 -194c26 -76.667 39 -178.667 39 -306v-776c0 -183.333 -25.667 -316.833 -77 -400.5s-141.166 -125.5 -269.499 -125.5s-218.666 42 -270.999 126
s-78.5 217.333 -78.5 400v776zM612.998 1294c0 112.667 -9.00195 192.5 -27.002 239.5s-54.333 70.5 -109 70.5s-92.667 -24 -114 -72s-32 -127 -32 -237v-791c0 -134 9.33301 -225.167 28 -273.5s56.334 -72.5 113.001 -72.5s94.334 24.5 113.001 73.5s28 139.833 28 272.5
v790zM498.996 1967l185 415l188 -95l-284 -366zM206.996 1967l128 415l185 -87l-223 -366z" />
    <glyph glyph-name="ohungarumlaut" unicode="&#x151;" horiz-adv-x="914" 
d="M124 1027c0 243.333 56.001 394.999 168.001 454.999c45.333 24 98 36 158 36c156.667 0 256.667 -63 300 -189c26.667 -79.333 40 -180 40 -302v-531c0 -210.667 -28.333 -349 -85 -415s-138.667 -99 -246 -99c-156.667 0 -256.334 66.667 -299.001 200
c-24 76.667 -36 181.334 -36 314.001v531zM584.001 1068c0 142.667 -20.334 229.334 -61.001 260.001c-16.667 12.667 -38.334 19 -65.001 19c-54 0 -88.833 -24.333 -104.5 -73s-23.5 -117.334 -23.5 -206.001v-629c0 -147.333 20.667 -236.333 62 -267
c16.667 -12.667 37.334 -19 62.001 -19h4c52.667 0 86.834 24.833 102.501 74.5s23.5 120.167 23.5 211.5v629zM484 1705l185 415l188 -95l-284 -366zM192 1705l128 415l185 -87l-223 -366z" />
    <glyph glyph-name="OE" unicode="&#x152;" horiz-adv-x="1214" 
d="M478 1760l634 -0.000976562v-172h-297v-602h280v-174h-280v-640h302v-172h-644c-129.333 0 -219.833 39.333 -271.5 118s-77.5 208.334 -77.5 389.001v775c0 156 24.5 274.667 73.5 356s142.5 122 280.5 122zM609 177.999l0.000976562 1403h-131
c-56.667 0 -95.334 -21 -116.001 -63s-31 -117 -31 -225v-788c0 -132 8.83301 -219.333 26.5 -262s56.167 -64.334 115.5 -65.001h136z" />
    <glyph glyph-name="oe" unicode="&#x153;" horiz-adv-x="1358" 
d="M693 1403c56.667 76.667 134.666 114.998 233.999 114.998c150 0 244.333 -65 283 -195c21.333 -72.667 32 -186.334 32 -341.001c0 -51.333 0.333008 -94.666 1 -129.999c0 -70 -0.333008 -107.333 -1 -112h-448v-296c0 -130 10.333 -211 31 -243s51.334 -48 92.001 -48
s69.167 13.667 85.5 41s26.333 61.5 30 102.5s5.5 95.333 5.5 163s-0.333008 101.834 -1 102.501h203v-60c0 -160.667 -11.333 -272.667 -34 -336s-56.5 -109.833 -101.5 -139.5s-106.833 -44.5 -185.5 -44.5c-99.333 0 -176 38 -230 114c-56 -76 -131.667 -114 -227 -114
c-157.333 0 -257.333 66.667 -300 200c-25.333 78 -38 183 -38 315v530c0 242.667 57 394.334 171 455.001c45.333 24 101 36 167 36c97.333 0 174.333 -38.333 231 -115zM587.999 1068c0 114.667 -11.168 189.834 -33.501 225.501s-50.166 53.5 -83.499 53.5
c-61.333 0 -100 -24.833 -116 -74.5s-24 -117.834 -24 -204.501v-629c0 -147.333 21 -236.333 63 -267c17.333 -12.667 38.333 -19 63 -19h4c52 0 86.167 25.167 102.5 75.5s24.5 120.5 24.5 210.5v629zM1038 1073c0 107.333 -3.83301 171.667 -11.5 193s-17 40.5 -28 57.5
s-31.5 25.5 -61.5 25.5c-71.333 0 -114 -36 -128 -108c-9.33301 -44.667 -14 -104.667 -14 -180v-172h243v184z" />
    <glyph glyph-name="Racute" unicode="&#x154;" horiz-adv-x="953" 
d="M144 1760l369 -0.000976562c104.667 0 180 -21.667 226 -65s73.667 -117 83 -221c4 -42.667 6 -109.167 6 -199.5s-11.833 -166.166 -35.5 -227.499s-65.5 -101 -125.5 -119c44 -7.33301 77.333 -30.5 100 -69.5s38.667 -101 48 -186s14 -211.333 14 -379
s5.33301 -265.5 16 -293.5h-206c-10.667 21.333 -16 219 -16 593c0 126 -12.333 199.167 -37 219.5s-62 30.5 -112 30.5l-123 7v-850h-207v1760zM623 1329c0 135.333 -12.167 213.668 -36.5 235.001s-59.5 32 -105.5 32h-130v-594h132c40 0 69.333 7.66699 88 23
s32 44.666 40 87.999s12 111.333 12 204v12zM293 2007l419 174v-199l-419 -86v111z" />
    <glyph glyph-name="racute" unicode="&#x155;" horiz-adv-x="651" 
d="M608 1518c2.66699 0 4 -43.333 4 -130l-1 -44c-120 0 -206 -41.667 -258 -125v-1219h-206v1500h206v-167c17.333 58.667 47.833 104.167 91.5 136.5s98.167 48.5 163.5 48.5zM172 1747l419 174v-199l-419 -86v111z" />
    <glyph glyph-name="Rcommaaccent" unicode="&#x156;" horiz-adv-x="953" 
d="M346 -155h234v-218l-85 -297h-90l49 288h-108v227zM144 1760l369 -0.000976562c104.667 0 180 -21.667 226 -65s73.667 -117 83 -221c4 -42.667 6 -109.167 6 -199.5s-11.833 -166.166 -35.5 -227.499s-65.5 -101 -125.5 -119c44 -7.33301 77.333 -30.5 100 -69.5
s38.667 -101 48 -186s14 -211.333 14 -379s5.33301 -265.5 16 -293.5h-206c-10.667 21.333 -16 219 -16 593c0 126 -12.333 199.167 -37 219.5s-62 30.5 -112 30.5l-123 7v-850h-207v1760zM623 1329c0 135.333 -12.167 213.668 -36.5 235.001s-59.5 32 -105.5 32h-130v-594
h132c40 0 69.333 7.66699 88 23s32 44.666 40 87.999s12 111.333 12 204v12z" />
    <glyph glyph-name="rcommaaccent" unicode="&#x157;" horiz-adv-x="651" 
d="M152 -155h234v-218l-85 -297h-90l49 288h-108v227zM608 1518c2.66699 0 4 -43.333 4 -130l-1 -44c-120 0 -206 -41.667 -258 -125v-1219h-206v1500h206v-167c17.333 58.667 47.833 104.167 91.5 136.5s98.167 48.5 163.5 48.5z" />
    <glyph glyph-name="Rcaron" unicode="&#x158;" horiz-adv-x="953" 
d="M144 1760l369 -0.000976562c104.667 0 180 -21.667 226 -65s73.667 -117 83 -221c4 -42.667 6 -109.167 6 -199.5s-11.833 -166.166 -35.5 -227.499s-65.5 -101 -125.5 -119c44 -7.33301 77.333 -30.5 100 -69.5s38.667 -101 48 -186s14 -211.333 14 -379
s5.33301 -265.5 16 -293.5h-206c-10.667 21.333 -16 219 -16 593c0 126 -12.333 199.167 -37 219.5s-62 30.5 -112 30.5l-123 7v-850h-207v1760zM623 1329c0 135.333 -12.167 213.668 -36.5 235.001s-59.5 32 -105.5 32h-130v-594h132c40 0 69.333 7.66699 88 23
s32 44.666 40 87.999s12 111.333 12 204v12zM568 2146h183l-153 -294h-232l-154 294h184l86 -205z" />
    <glyph glyph-name="rcaron" unicode="&#x159;" horiz-adv-x="651" 
d="M608 1518c2.66699 0 4 -43.333 4 -130l-1 -44c-120 0 -206 -41.667 -258 -125v-1219h-206v1500h206v-167c17.333 58.667 47.833 104.167 91.5 136.5s98.167 48.5 163.5 48.5zM448 1886h183l-153 -294h-232l-154 294h184l86 -205z" />
    <glyph glyph-name="Sacute" unicode="&#x15a;" horiz-adv-x="867" 
d="M124 1215c-12 42 -17.999 92.3301 -17.999 150.997c0 127.333 23.5 228.5 70.5 303.5s136.833 112.5 269.5 112.5c170.667 0 271.334 -82 302.001 -246c13.333 -70.667 20 -159.667 20 -267v-104h-198v118c0 112 -5.66699 187.333 -17 226s-25.333 64.334 -42 77.001
s-38.334 19 -65.001 19c-50 0 -86 -18.333 -108 -55s-33 -91 -33 -163s10 -124.667 30 -158s44.667 -65.166 74 -95.499s45.666 -47.5 48.999 -51.5l120 -127c144 -150.667 216 -319.334 216 -506.001c0 -152 -23.5 -268.167 -70.5 -348.5s-136.5 -120.5 -268.5 -120.5
c-159.333 0 -260.333 70 -303 210c-24.667 78.667 -37 181.667 -37 309v10v171h201v-179c0 -128.667 9.33301 -218.167 28 -268.5s53.334 -75.5 104.001 -75.5s85.667 11.833 105 35.5s30.5 59.834 33.5 108.501s4.5 103.334 4.5 164.001c0 122 -53.667 236.667 -161 344
l-115 115c-102.667 105.333 -166.334 202.333 -191.001 291zM262.001 2006l419 174v-199l-419 -86v111z" />
    <glyph glyph-name="sacute" unicode="&#x15b;" horiz-adv-x="805" 
d="M745 344c-0.666992 -242.667 -107.668 -364 -321.001 -364c-108 0 -189 34.333 -243 103s-81 179 -81 331v113h199v-112c0 -173.333 39.333 -260 118 -260c43.333 0 74.5 14 93.5 42s28.5 76.667 28.5 146c0 108.667 -50 212 -150 310
c-7.33301 7.33301 -24.666 23.833 -51.999 49.5l-54 51.5c-130 124 -195 261 -195 411c0 118.667 28 207.167 84 265.5s135.667 87.5 239 87.5c70 0 127 -14.333 171 -43c92 -60 138 -201.667 138 -425v-72h-195v104c0 87.333 -8.5 152.5 -25.5 195.5
s-46.167 64.5 -87.5 64.5s-72.333 -13 -93 -39s-31 -70 -31 -132c0 -97.333 45.667 -191.333 137 -282l108 -101c141.333 -135.333 212 -283.333 212 -444zM234.999 1747l419 174v-199l-419 -86v111z" />
    <glyph glyph-name="Scircumflex" unicode="&#x15c;" horiz-adv-x="867" 
d="M124 1215c-12 42 -17.999 92.3301 -17.999 150.997c0 127.333 23.5 228.5 70.5 303.5s136.833 112.5 269.5 112.5c170.667 0 271.334 -82 302.001 -246c13.333 -70.667 20 -159.667 20 -267v-104h-198v118c0 112 -5.66699 187.333 -17 226s-25.333 64.334 -42 77.001
s-38.334 19 -65.001 19c-50 0 -86 -18.333 -108 -55s-33 -91 -33 -163s10 -124.667 30 -158s44.667 -65.166 74 -95.499s45.666 -47.5 48.999 -51.5l120 -127c144 -150.667 216 -319.334 216 -506.001c0 -152 -23.5 -268.167 -70.5 -348.5s-136.5 -120.5 -268.5 -120.5
c-159.333 0 -260.333 70 -303 210c-24.667 78.667 -37 181.667 -37 309v10v171h201v-179c0 -128.667 9.33301 -218.167 28 -268.5s53.334 -75.5 104.001 -75.5s85.667 11.833 105 35.5s30.5 59.834 33.5 108.501s4.5 103.334 4.5 164.001c0 122 -53.667 236.667 -161 344
l-115 115c-102.667 105.333 -166.334 202.333 -191.001 291zM336.001 2145h232l153 -294h-183l-86 205l-86 -205h-184z" />
    <glyph glyph-name="scircumflex" unicode="&#x15d;" horiz-adv-x="805" 
d="M745 344c-0.666992 -242.667 -107.668 -364 -321.001 -364c-108 0 -189 34.333 -243 103s-81 179 -81 331v113h199v-112c0 -173.333 39.333 -260 118 -260c43.333 0 74.5 14 93.5 42s28.5 76.667 28.5 146c0 108.667 -50 212 -150 310
c-7.33301 7.33301 -24.666 23.833 -51.999 49.5l-54 51.5c-130 124 -195 261 -195 411c0 118.667 28 207.167 84 265.5s135.667 87.5 239 87.5c70 0 127 -14.333 171 -43c92 -60 138 -201.667 138 -425v-72h-195v104c0 87.333 -8.5 152.5 -25.5 195.5
s-46.167 64.5 -87.5 64.5s-72.333 -13 -93 -39s-31 -70 -31 -132c0 -97.333 45.667 -191.333 137 -282l108 -101c141.333 -135.333 212 -283.333 212 -444zM307.999 1886h232l153 -294h-183l-86 205l-86 -205h-184z" />
    <glyph glyph-name="Scedilla" unicode="&#x15e;" horiz-adv-x="867" 
d="M275 -501c154 0 231 47 231 141c0 42.667 -15.5 78.167 -46.5 106.5s-68.833 47.5 -113.5 57.5l40 196h69l12 -144c135.333 -56 203 -140.333 203 -253c0 -55.333 -25.833 -105.833 -77.5 -151.5s-118.5 -68.5 -200.5 -68.5c-38 0 -77 6 -117 18v98zM124 1215
c-12 42 -17.999 92.3301 -17.999 150.997c0 127.333 23.5 228.5 70.5 303.5s136.833 112.5 269.5 112.5c170.667 0 271.334 -82 302.001 -246c13.333 -70.667 20 -159.667 20 -267v-104h-198v118c0 112 -5.66699 187.333 -17 226s-25.333 64.334 -42 77.001
s-38.334 19 -65.001 19c-50 0 -86 -18.333 -108 -55s-33 -91 -33 -163s10 -124.667 30 -158s44.667 -65.166 74 -95.499s45.666 -47.5 48.999 -51.5l120 -127c144 -150.667 216 -319.334 216 -506.001c0 -152 -23.5 -268.167 -70.5 -348.5s-136.5 -120.5 -268.5 -120.5
c-159.333 0 -260.333 70 -303 210c-24.667 78.667 -37 181.667 -37 309v10v171h201v-179c0 -128.667 9.33301 -218.167 28 -268.5s53.334 -75.5 104.001 -75.5s85.667 11.833 105 35.5s30.5 59.834 33.5 108.501s4.5 103.334 4.5 164.001c0 122 -53.667 236.667 -161 344
l-115 115c-102.667 105.333 -166.334 202.333 -191.001 291z" />
    <glyph glyph-name="scedilla" unicode="&#x15f;" horiz-adv-x="805" 
d="M239 -501c154 0 231 47 231 141c0 42.667 -15.5 78.167 -46.5 106.5s-68.833 47.5 -113.5 57.5l40 196h69l12 -144c135.333 -56 203 -140.333 203 -253c0 -55.333 -25.833 -105.833 -77.5 -151.5s-118.5 -68.5 -200.5 -68.5c-38 0 -77 6 -117 18v98zM745 344
c-0.666992 -242.667 -107.668 -364 -321.001 -364c-108 0 -189 34.333 -243 103s-81 179 -81 331v113h199v-112c0 -173.333 39.333 -260 118 -260c43.333 0 74.5 14 93.5 42s28.5 76.667 28.5 146c0 108.667 -50 212 -150 310c-7.33301 7.33301 -24.666 23.833 -51.999 49.5
l-54 51.5c-130 124 -195 261 -195 411c0 118.667 28 207.167 84 265.5s135.667 87.5 239 87.5c70 0 127 -14.333 171 -43c92 -60 138 -201.667 138 -425v-72h-195v104c0 87.333 -8.5 152.5 -25.5 195.5s-46.167 64.5 -87.5 64.5s-72.333 -13 -93 -39s-31 -70 -31 -132
c0 -97.333 45.667 -191.333 137 -282l108 -101c141.333 -135.333 212 -283.333 212 -444z" />
    <glyph glyph-name="Scaron" unicode="&#x160;" horiz-adv-x="867" 
d="M124 1215c-12 42 -17.999 92.3301 -17.999 150.997c0 127.333 23.5 228.5 70.5 303.5s136.833 112.5 269.5 112.5c170.667 0 271.334 -82 302.001 -246c13.333 -70.667 20 -159.667 20 -267v-104h-198v118c0 112 -5.66699 187.333 -17 226s-25.333 64.334 -42 77.001
s-38.334 19 -65.001 19c-50 0 -86 -18.333 -108 -55s-33 -91 -33 -163s10 -124.667 30 -158s44.667 -65.166 74 -95.499s45.666 -47.5 48.999 -51.5l120 -127c144 -150.667 216 -319.334 216 -506.001c0 -152 -23.5 -268.167 -70.5 -348.5s-136.5 -120.5 -268.5 -120.5
c-159.333 0 -260.333 70 -303 210c-24.667 78.667 -37 181.667 -37 309v10v171h201v-179c0 -128.667 9.33301 -218.167 28 -268.5s53.334 -75.5 104.001 -75.5s85.667 11.833 105 35.5s30.5 59.834 33.5 108.501s4.5 103.334 4.5 164.001c0 122 -53.667 236.667 -161 344
l-115 115c-102.667 105.333 -166.334 202.333 -191.001 291zM538.001 2145h183l-153 -294h-232l-154 294h184l86 -205z" />
    <glyph glyph-name="scaron" unicode="&#x161;" horiz-adv-x="805" 
d="M745 344c-0.666992 -242.667 -107.668 -364 -321.001 -364c-108 0 -189 34.333 -243 103s-81 179 -81 331v113h199v-112c0 -173.333 39.333 -260 118 -260c43.333 0 74.5 14 93.5 42s28.5 76.667 28.5 146c0 108.667 -50 212 -150 310
c-7.33301 7.33301 -24.666 23.833 -51.999 49.5l-54 51.5c-130 124 -195 261 -195 411c0 118.667 28 207.167 84 265.5s135.667 87.5 239 87.5c70 0 127 -14.333 171 -43c92 -60 138 -201.667 138 -425v-72h-195v104c0 87.333 -8.5 152.5 -25.5 195.5
s-46.167 64.5 -87.5 64.5s-72.333 -13 -93 -39s-31 -70 -31 -132c0 -97.333 45.667 -191.333 137 -282l108 -101c141.333 -135.333 212 -283.333 212 -444zM509.999 1886h183l-153 -294h-232l-154 294h184l86 -205z" />
    <glyph glyph-name="Tcaron" unicode="&#x164;" horiz-adv-x="633" 
d="M28 1760h581v-172h-181v-1588h-206v1588h-194v172zM403 2146h183l-153 -294h-232l-154 294h184l86 -205z" />
    <glyph glyph-name="tcaron" unicode="&#x165;" horiz-adv-x="612" 
d="M183 1760l205.001 0.000976562v-272h162v-152h-162v-1095c0 -38.667 9 -62.834 27 -72.501s63.667 -14.5 137 -14.5v-163h-141c-94.667 0 -156.334 17.167 -185.001 51.5s-43 94.5 -43 180.5v1113h-137v152h137v272zM661.001 1761h309v-231l-125 -432h-129l92 423h-147
v240z" />
    <glyph glyph-name="Utilde" unicode="&#x168;" horiz-adv-x="963" 
d="M169 1951c18 62 41.6689 103.833 71.002 125.5s62.166 32.5 98.499 32.5s87.333 -12.333 153 -37s105.5 -37 119.5 -37h4c11.333 2 21.166 7.5 29.499 16.5s17.166 27.167 26.499 54.5l123 -28l-9 -37c-16.667 -63.333 -36.667 -105.833 -60 -127.5
s-52.666 -32.5 -87.999 -32.5s-84.5 13.667 -147.5 41s-104 41 -123 41s-33.667 -1.16699 -44 -3.5s-24.5 -21.5 -42.5 -57.5zM623.002 1760h205.999v-1308c0 -164.667 -25.833 -284.667 -77.5 -360s-141.167 -113 -268.5 -113s-217.333 37.667 -270 113
s-79 195.333 -79 360v1308h207v-1303c0 -117.333 4.83301 -187.5 14.5 -210.5s19.834 -41.167 30.501 -54.5c18.667 -25.333 51 -38 97 -38s80 14 102 42s33.833 69.667 35.5 125s2.5 100.333 2.5 135v1304z" />
    <glyph glyph-name="utilde" unicode="&#x169;" 
d="M186 1692c18 62 41.6689 103.833 71.002 125.5s62.166 32.5 98.499 32.5s87.333 -12.333 153 -37s105.5 -37 119.5 -37h4c11.333 2 21.166 7.5 29.499 16.5s17.166 27.167 26.499 54.5l123 -28l-9 -37c-16.667 -63.333 -36.667 -105.833 -60 -127.5
s-52.666 -32.5 -87.999 -32.5s-84.5 13.667 -147.5 41s-104 41 -123 41s-33.667 -1.16699 -44 -3.5s-24.5 -21.5 -42.5 -57.5zM616.002 1500h206v-1500h-206v153c-16 -50.667 -43.5 -92.167 -82.5 -124.5s-91.333 -48.5 -157 -48.5s-122 27.167 -169 81.5
s-70.5 137.833 -70.5 250.5v1188h205v-1165c0 -118 43 -177 129 -177c48 0 84.167 16.667 108.5 50s36.5 77.333 36.5 132v1160z" />
    <glyph glyph-name="Umacron" unicode="&#x16a;" horiz-adv-x="963" 
d="M224 2003h501v-132h-501v132zM623 1760h205.999v-1308c0 -164.667 -25.833 -284.667 -77.5 -360s-141.167 -113 -268.5 -113s-217.333 37.667 -270 113s-79 195.333 -79 360v1308h207v-1303c0 -117.333 4.83301 -187.5 14.5 -210.5s19.834 -41.167 30.501 -54.5
c18.667 -25.333 51 -38 97 -38s80 14 102 42s33.833 69.667 35.5 125s2.5 100.333 2.5 135v1304z" />
    <glyph glyph-name="umacron" unicode="&#x16b;" 
d="M241 1744h501v-132h-501v132zM616 1500h206v-1500h-206v153c-16 -50.667 -43.5 -92.167 -82.5 -124.5s-91.333 -48.5 -157 -48.5s-122 27.167 -169 81.5s-70.5 137.833 -70.5 250.5v1188h205v-1165c0 -118 43 -177 129 -177c48 0 84.167 16.667 108.5 50
s36.5 77.333 36.5 132v1160z" />
    <glyph glyph-name="Ubreve" unicode="&#x16c;" horiz-adv-x="963" 
d="M609 2115h106.001v-13c0 -72.667 -19.667 -128.5 -59 -167.5s-97.833 -58.5 -175.5 -58.5s-136.334 19.333 -176.001 58s-59.5 94 -59.5 166v15h106c0 -80.667 43.333 -121 130 -121c38.667 0 69.667 8.5 93 25.5s35 48.833 35 95.5zM623.001 1760h205.999v-1308
c0 -164.667 -25.833 -284.667 -77.5 -360s-141.167 -113 -268.5 -113s-217.333 37.667 -270 113s-79 195.333 -79 360v1308h207v-1303c0 -117.333 4.83301 -187.5 14.5 -210.5s19.834 -41.167 30.501 -54.5c18.667 -25.333 51 -38 97 -38s80 14 102 42
s33.833 69.667 35.5 125s2.5 100.333 2.5 135v1304z" />
    <glyph glyph-name="ubreve" unicode="&#x16d;" 
d="M626 1856h106.001v-13c0 -72.667 -19.667 -128.5 -59 -167.5s-97.833 -58.5 -175.5 -58.5s-136.334 19.333 -176.001 58s-59.5 94 -59.5 166v15h106c0 -80.667 43.333 -121 130 -121c38.667 0 69.667 8.5 93 25.5s35 48.833 35 95.5zM616.001 1500h206v-1500h-206v153
c-16 -50.667 -43.5 -92.167 -82.5 -124.5s-91.333 -48.5 -157 -48.5s-122 27.167 -169 81.5s-70.5 137.833 -70.5 250.5v1188h205v-1165c0 -118 43 -177 129 -177c48 0 84.167 16.667 108.5 50s36.5 77.333 36.5 132v1160z" />
    <glyph glyph-name="Uring" unicode="&#x16e;" horiz-adv-x="963" 
d="M623 1760h205.999v-1308c0 -164.667 -25.833 -284.667 -77.5 -360s-141.167 -113 -268.5 -113s-217.333 37.667 -270 113s-79 195.333 -79 360v1308h207v-1303c0 -117.333 4.83301 -187.5 14.5 -210.5s19.834 -41.167 30.501 -54.5c18.667 -25.333 51 -38 97 -38
s80 14 102 42s33.833 69.667 35.5 125s2.5 100.333 2.5 135v1304zM342.499 1909.5c-35.667 36.333 -53.5 80.665 -53.5 132.998s17.833 96.666 53.5 133c35.667 36.333 84.5 54.5 146.5 54.5s110.833 -18.167 146.5 -54.5s53.5 -80.666 53.5 -132.999
s-17.833 -96.666 -53.5 -132.999s-84.5 -54.5 -146.5 -54.5s-110.833 18.167 -146.5 54.5zM598.999 2043c0 31.333 -9.66699 58.5 -29 81.5s-46 34.5 -80 34.5s-60.5 -11.5 -79.5 -34.5s-28.5 -50.167 -28.5 -81.5s9.5 -58.5 28.5 -81.5s45.5 -34.5 79.5 -34.5
s60.667 11.5 80 34.5s29 50.167 29 81.5z" />
    <glyph glyph-name="uring" unicode="&#x16f;" 
d="M616 1500h206v-1500h-206v153c-16 -50.667 -43.5 -92.167 -82.5 -124.5s-91.333 -48.5 -157 -48.5s-122 27.167 -169 81.5s-70.5 137.833 -70.5 250.5v1188h205v-1165c0 -118 43 -177 129 -177c48 0 84.167 16.667 108.5 50s36.5 77.333 36.5 132v1160zM351.5 1650.5
c-35.667 36.333 -53.5 80.666 -53.5 132.999s17.833 96.666 53.5 132.999s84.5 54.5 146.5 54.5s110.833 -18.167 146.5 -54.5s53.5 -80.666 53.5 -132.999s-17.833 -96.666 -53.5 -132.999s-84.5 -54.5 -146.5 -54.5s-110.833 18.167 -146.5 54.5zM608 1784
c0 31.333 -9.66699 58.5 -29 81.5s-46 34.5 -80 34.5s-60.5 -11.5 -79.5 -34.5s-28.5 -50.167 -28.5 -81.5s9.5 -58.5 28.5 -81.5s45.5 -34.5 79.5 -34.5s60.667 11.5 80 34.5s29 50.167 29 81.5z" />
    <glyph glyph-name="Uhungarumlaut" unicode="&#x170;" horiz-adv-x="963" 
d="M509 1964l185 415l188 -95l-284 -366zM217 1964l128 415l185 -87l-223 -366zM623 1760h205.999v-1308c0 -164.667 -25.833 -284.667 -77.5 -360s-141.167 -113 -268.5 -113s-217.333 37.667 -270 113s-79 195.333 -79 360v1308h207v-1303
c0 -117.333 4.83301 -187.5 14.5 -210.5s19.834 -41.167 30.501 -54.5c18.667 -25.333 51 -38 97 -38s80 14 102 42s33.833 69.667 35.5 125s2.5 100.333 2.5 135v1304z" />
    <glyph glyph-name="uhungarumlaut" unicode="&#x171;" 
d="M526 1705l185 415l188 -95l-284 -366zM234 1705l128 415l185 -87l-223 -366zM616 1500h206v-1500h-206v153c-16 -50.667 -43.5 -92.167 -82.5 -124.5s-91.333 -48.5 -157 -48.5s-122 27.167 -169 81.5s-70.5 137.833 -70.5 250.5v1188h205v-1165c0 -118 43 -177 129 -177
c48 0 84.167 16.667 108.5 50s36.5 77.333 36.5 132v1160z" />
    <glyph glyph-name="Uogonek" unicode="&#x172;" horiz-adv-x="963" 
d="M623 1760h205.999v-1308c0 -164.667 -25.833 -284.667 -77.5 -360s-141.167 -113 -268.5 -113s-217.333 37.667 -270 113s-79 195.333 -79 360v1308h207v-1303c0 -117.333 4.83301 -187.5 14.5 -210.5s19.834 -41.167 30.501 -54.5c18.667 -25.333 51 -38 97 -38
s80 14 102 42s33.833 69.667 35.5 125s2.5 100.333 2.5 135v1304zM481.999 7h85.001c-60.667 -59.333 -109.167 -122 -145.5 -188s-54.5 -122.333 -54.5 -169c0 -92.667 49.667 -139 149 -139c48 0 92 6.66699 132 20v-115c-13.333 -7.33301 -37 -15 -71 -23
s-66.667 -12 -98 -12c-88 0 -155 21 -201 63s-69 97.833 -69 167.5s24.167 141 72.5 214s115.166 133.5 200.499 181.5z" />
    <glyph glyph-name="uogonek" unicode="&#x173;" 
d="M616 1500h206v-1500h-206v153c-16 -50.667 -43.5 -92.167 -82.5 -124.5s-91.333 -48.5 -157 -48.5s-122 27.167 -169 81.5s-70.5 137.833 -70.5 250.5v1188h205v-1165c0 -118 43 -177 129 -177c48 0 84.167 16.667 108.5 50s36.5 77.333 36.5 132v1160zM687 7h85.001
c-60.667 -59.333 -109.167 -122 -145.5 -188s-54.5 -122.333 -54.5 -169c0 -92.667 49.667 -139 149 -139c48 0 92 6.66699 132 20v-115c-13.333 -7.33301 -37 -15 -71 -23s-66.667 -12 -98 -12c-88 0 -155 21 -201 63s-69 97.833 -69 167.5s24.167 141 72.5 214
s115.166 133.5 200.499 181.5z" />
    <glyph glyph-name="Wcircumflex" unicode="&#x174;" horiz-adv-x="1359" 
d="M1106 1760h190l-208 -1760h-205l-188 1299l-199 -1299h-200l-232 1760h191l150 -1349l200 1349h169l205 -1349zM582 2146h232l153 -294h-183l-86 205l-86 -205h-184z" />
    <glyph glyph-name="wcircumflex" unicode="&#x175;" horiz-adv-x="1160" 
d="M940 1500h168l-181 -1500h-189l-151 1174l-180 -1174h-181l-175 1500h172l79 -835l23 -287h9l38 288l119 834h179l119 -812l41 -310h8l24 311zM471 1886h232l153 -294h-183l-86 205l-86 -205h-184z" />
    <glyph glyph-name="Ycircumflex" unicode="&#x176;" horiz-adv-x="836" 
d="M308 2146h232l153 -294h-183l-86 205l-86 -205h-184zM614 1760h203l-284 -1021v-739h-207v739l-306 1021h201l208 -720h4z" />
    <glyph glyph-name="ycircumflex" unicode="&#x177;" horiz-adv-x="791" 
d="M287 1886h232l153 -294h-183l-86 205l-86 -205h-184zM558 1500l198.002 0.000976562l-249 -1529c-12 -83.333 -27.333 -137.666 -46 -162.999s-39.334 -41.5 -62.001 -48.5s-52.334 -10.5 -89.001 -10.5h-201v155h71c70 0 108.667 8 116 24c6 7.33301 9 21.666 9 42.999
s-2.66699 48.666 -8 81.999l-245 1447h199l108 -780l44 -406h18l39 406z" />
    <glyph glyph-name="Ydieresis" unicode="&#x178;" horiz-adv-x="836" 
d="M551 2056h230v-178h-230v178zM67 2056h230v-178h-230v178zM614 1760h203l-284 -1021v-739h-207v739l-306 1021h201l208 -720h4z" />
    <glyph glyph-name="Zacute" unicode="&#x179;" horiz-adv-x="764" 
d="M148 1760h544v-158l-363 -1430h355v-172h-569v179l363 1409h-330v172zM241 2007l419 174v-199l-419 -86v111z" />
    <glyph glyph-name="zacute" unicode="&#x17a;" horiz-adv-x="680" 
d="M101 1500h517v-141l-331 -1184h314v-175h-525v153l330 1170h-305v177zM197 1747l419 174v-199l-419 -86v111z" />
    <glyph glyph-name="Zdotaccent" unicode="&#x17b;" horiz-adv-x="764" 
d="M328 2043h213v-178h-213v178zM148 1760h544v-158l-363 -1430h355v-172h-569v179l363 1409h-330v172z" />
    <glyph glyph-name="zdotaccent" unicode="&#x17c;" horiz-adv-x="680" 
d="M285 1783h213v-178h-213v178zM101 1500h517v-141l-331 -1184h314v-175h-525v153l330 1170h-305v177z" />
    <glyph glyph-name="Zcaron" unicode="&#x17d;" horiz-adv-x="764" 
d="M148 1760h544v-158l-363 -1430h355v-172h-569v179l363 1409h-330v172zM516 2146h183l-153 -294h-232l-154 294h184l86 -205z" />
    <glyph glyph-name="zcaron" unicode="&#x17e;" horiz-adv-x="680" 
d="M101 1500h517v-141l-331 -1184h314v-175h-525v153l330 1170h-305v177zM473 1886h183l-153 -294h-232l-154 294h184l86 -205z" />
    <glyph glyph-name="florin" unicode="&#x192;" horiz-adv-x="767" 
d="M115 157l52 -3c50.667 0 83.167 9.83301 97.5 29.5s21.5 60.167 21.5 121.5v797h-179v153h179v284c0 164 65.667 246 197 246c54 0 110.333 -11 169 -33v-149c-42 12.667 -75.5 19 -100.5 19s-43.167 -9.33301 -54.5 -28s-17 -49 -17 -91v-248h182v-153h-182v-881
c0 -157.333 -70 -236 -210 -236c-48 0 -99.667 7.66699 -155 23v149z" />
    <glyph glyph-name="uni01C4" unicode="&#x1c4;" horiz-adv-x="1709" 
d="M1093 1760h544v-158l-363 -1430h355v-172h-569v179l363 1409h-330v172zM1461 2146h183l-153 -294h-232l-154 294h184l86 -205zM143 1760h330.999c134.667 0 227.334 -41.5 278.001 -124.5s76 -200.833 76 -353.5l1 -773c0 -180.667 -27.667 -310.667 -83 -390
s-148.333 -119 -279 -119h-324v1760zM621.999 1287c0 110 -13 189 -39 237s-68.667 72 -128 72h-106v-1429h106c40 0 71.333 8 94 24c48.667 34.667 73 130 73 286v810z" />
    <glyph glyph-name="uni01C5" unicode="&#x1c5;" horiz-adv-x="1625" 
d="M1046 1500h517v-141l-331 -1184h314v-175h-525v153l330 1170h-305v177zM1418 1886h183l-153 -294h-232l-154 294h184l86 -205zM143 1760h330.999c134.667 0 227.334 -41.5 278.001 -124.5s76 -200.833 76 -353.5l1 -773c0 -180.667 -27.667 -310.667 -83 -390
s-148.333 -119 -279 -119h-324v1760zM621.999 1287c0 110 -13 189 -39 237s-68.667 72 -128 72h-106v-1429h106c40 0 71.333 8 94 24c48.667 34.667 73 130 73 286v810z" />
    <glyph glyph-name="uni01C6" unicode="&#x1c6;" horiz-adv-x="1618" 
d="M1039 1500h517v-141l-331 -1184h314v-175h-525v153l330 1170h-305v177zM1411 1886h183l-153 -294h-232l-154 294h184l86 -205zM586 1779l205.999 -0.000976562v-1779h-206v126c-37.333 -92.667 -106.333 -139 -207 -139c-138 0 -219 91 -243 273
c-8 60.667 -12 134 -12 220v567c0 180.667 29.333 308.334 88 383.001c46.667 58.667 112.667 88 198 88c37.333 0 71.833 -11 103.5 -33s55.834 -50.333 72.501 -85v379zM586.999 1050c0 105.333 -8.83301 181.001 -26.5 227.001s-51.667 69 -102 69
s-84.333 -23.167 -102 -69.5s-26.5 -123.5 -26.5 -231.5v-606c0 -146.667 19.333 -235.334 58 -266.001c16 -12.667 38.667 -19 68 -19s53.333 8 72 24c39.333 33.333 59 123.333 59 270v602z" />
    <glyph glyph-name="uni01C7" unicode="&#x1c7;" horiz-adv-x="1570" 
d="M1223 1760h207v-1334c0 -298 -104.667 -447 -314 -447c-110.667 0 -192 33.833 -244 101.5s-78 170.5 -78 308.5v230h202v-217c0 -89.333 4 -144 12 -164s16 -36 24 -48c16 -23.333 42.5 -35 79.5 -35s63.333 12.5 79 37.5s25 55.667 28 92s4.5 80.833 4.5 133.5v1342z
M144 1760h207v-1589h325v-171h-532v1760z" />
    <glyph glyph-name="uni01C8" unicode="&#x1c8;" horiz-adv-x="1245" 
d="M792 -56c9.33301 -1.33301 19 -1.99902 29 -1.99902s17.667 0.333008 23 1c33.333 3.33301 50 25.666 50 66.999v1490h205v-1480c0 -78 -16.167 -135 -48.5 -171s-71.5 -55.333 -117.5 -58c-14.667 -1.33301 -40.167 -2 -76.5 -2s-59.833 3.66699 -70.5 11v144h6z
M892 1826h206v-188h-206v188zM144 1760h207v-1589h325v-171h-532v1760z" />
    <glyph glyph-name="uni01C9" unicode="&#x1c9;" horiz-adv-x="1034" 
d="M581 -56c9.33301 -1.33301 19 -1.99902 29 -1.99902s17.667 0.333008 23 1c33.333 3.33301 50 25.666 50 66.999v1490h205v-1480c0 -78 -16.167 -135 -48.5 -171s-71.5 -55.333 -117.5 -58c-14.667 -1.33301 -40.167 -2 -76.5 -2s-59.833 3.66699 -70.5 11v144h6z
M681 1826h206v-188h-206v188zM148 1779h205v-1779h-205v1779z" />
    <glyph glyph-name="uni01CA" unicode="&#x1ca;" horiz-adv-x="1872" 
d="M1525 1760h207v-1334c0 -298 -104.667 -447 -314 -447c-110.667 0 -192 33.833 -244 101.5s-78 170.5 -78 308.5v230h202v-217c0 -89.333 4 -144 12 -164s16 -36 24 -48c16 -23.333 42.5 -35 79.5 -35s63.333 12.5 79 37.5s25 55.667 28 92s4.5 80.833 4.5 133.5v1342z
M687 1760h183v-1760h-152l-395 1208l12 -444v-764h-191v1760h156l408 -1198l-21 509v689z" />
    <glyph glyph-name="uni01CB" unicode="&#x1cb;" horiz-adv-x="1547" 
d="M1094 -56c9.33301 -1.33301 19 -1.99902 29 -1.99902s17.667 0.333008 23 1c33.333 3.33301 50 25.666 50 66.999v1490h205v-1480c0 -78 -16.167 -135 -48.5 -171s-71.5 -55.333 -117.5 -58c-14.667 -1.33301 -40.167 -2 -76.5 -2s-59.833 3.66699 -70.5 11v144h6z
M1194 1826h206v-188h-206v188zM687 1760h183v-1760h-152l-395 1208l12 -444v-764h-191v1760h156l408 -1198l-21 509v689z" />
    <glyph glyph-name="uni01CC" unicode="&#x1cc;" horiz-adv-x="1503" 
d="M1050 -56c9.33301 -1.33301 19 -1.99902 29 -1.99902s17.667 0.333008 23 1c33.333 3.33301 50 25.666 50 66.999v1490h205v-1480c0 -78 -16.167 -135 -48.5 -171s-71.5 -55.333 -117.5 -58c-14.667 -1.33301 -40.167 -2 -76.5 -2s-59.833 3.66699 -70.5 11v144h6z
M1150 1826h206v-188h-206v188zM352 1341c13.333 48.667 42.498 90.5 87.498 125.5s101 52.5 168 52.5s121.333 -27.167 163 -81.5s62.5 -134.833 62.5 -241.5v-1196h-205v1195c0 50.667 -11.667 88.667 -35 114s-55.666 38 -96.999 38s-75.666 -14.333 -102.999 -43
s-41 -71.667 -41 -129v-1175h-205v1500h205v-159z" />
    <glyph glyph-name="uni01F1" unicode="&#x1f1;" horiz-adv-x="1709" 
d="M1093 1760h544v-158l-363 -1430h355v-172h-569v179l363 1409h-330v172zM143 1760h330.999c134.667 0 227.334 -41.5 278.001 -124.5s76 -200.833 76 -353.5l1 -773c0 -180.667 -27.667 -310.667 -83 -390s-148.333 -119 -279 -119h-324v1760zM621.999 1287
c0 110 -13 189 -39 237s-68.667 72 -128 72h-106v-1429h106c40 0 71.333 8 94 24c48.667 34.667 73 130 73 286v810z" />
    <glyph glyph-name="uni01F2" unicode="&#x1f2;" horiz-adv-x="1625" 
d="M1046 1500h517v-141l-331 -1184h314v-175h-525v153l330 1170h-305v177zM143 1760h330.999c134.667 0 227.334 -41.5 278.001 -124.5s76 -200.833 76 -353.5l1 -773c0 -180.667 -27.667 -310.667 -83 -390s-148.333 -119 -279 -119h-324v1760zM621.999 1287
c0 110 -13 189 -39 237s-68.667 72 -128 72h-106v-1429h106c40 0 71.333 8 94 24c48.667 34.667 73 130 73 286v810z" />
    <glyph glyph-name="uni01F3" unicode="&#x1f3;" horiz-adv-x="1618" 
d="M1039 1500h517v-141l-331 -1184h314v-175h-525v153l330 1170h-305v177zM586 1779l205.999 -0.000976562v-1779h-206v126c-37.333 -92.667 -106.333 -139 -207 -139c-138 0 -219 91 -243 273c-8 60.667 -12 134 -12 220v567c0 180.667 29.333 308.334 88 383.001
c46.667 58.667 112.667 88 198 88c37.333 0 71.833 -11 103.5 -33s55.834 -50.333 72.501 -85v379zM586.999 1050c0 105.333 -8.83301 181.001 -26.5 227.001s-51.667 69 -102 69s-84.333 -23.167 -102 -69.5s-26.5 -123.5 -26.5 -231.5v-606
c0 -146.667 19.333 -235.334 58 -266.001c16 -12.667 38.667 -19 68 -19s53.333 8 72 24c39.333 33.333 59 123.333 59 270v602z" />
    <glyph glyph-name="uni01F4" unicode="&#x1f4;" horiz-adv-x="942" 
d="M124 1262c0 258.667 61.333 419.333 184 482c48 24 100.667 36.333 158 37c107.333 0 185 -22.833 233 -68.5s79 -106 93 -181s21 -166.167 21 -273.5v-136h-200v229c0 90 -9.16699 154.333 -27.5 193s-54.333 58 -108 58s-91.5 -24.333 -113.5 -73
s-33 -134.667 -33 -258v-740c0 -140.667 9.66699 -238.5 29 -293.5s57.5 -82.5 114.5 -82.5s96 28.333 117 85s31.5 155 31.5 295v229h-143v160h333v-924h-109l-28 136c-39.333 -102 -114.5 -153 -225.5 -153s-193.167 43.167 -246.5 129.5s-80 223.5 -80 411.5v738z
M291 2007l419 174v-199l-419 -86v111z" />
    <glyph glyph-name="uni01F5" unicode="&#x1f5;" horiz-adv-x="929" 
d="M400 1518c94 0 155 -42.668 183 -128.001v110h205v-1360c0 -178.667 -67.333 -293 -202 -343c-46.667 -17.333 -100.667 -26 -162 -26c-122.667 0 -224.334 32 -305.001 96l74 140c72.667 -49.333 149.667 -74 231 -74c54 0 94 17 120 51s39 79.667 39 137v143
c-18 -46.667 -43 -79 -75 -97c-33.333 -18 -74.666 -27 -123.999 -27c-100 0 -168.667 42.333 -206 127s-56 198.334 -56 341.001v430c0 320 92.667 480 278 480zM583 1068c0 97.333 -8.83203 168.166 -26.499 212.499s-48.667 66.5 -93 66.5s-75.5 -12.667 -93.5 -38
s-29.5 -57 -34.5 -95s-7.5 -86 -7.5 -144v-467c0 -106 9.66699 -182.5 29 -229.5s55.666 -70.5 108.999 -70.5c28 0 50 8 66 24c33.333 32.667 50.333 125.334 51 278.001v463zM300.001 1747l419 174v-199l-419 -86v111z" />
    <glyph glyph-name="uni0200" unicode="&#x200;" horiz-adv-x="939" 
d="M53 2217l162 100l197 -367l-94 -50zM386 2217l158 100l160 -367l-94 -50zM333 1760h249l291 -1760h-195l-50 336h-319l-46 -336h-197zM332 504h270l-139 930h-3z" />
    <glyph glyph-name="uni0201" unicode="&#x201;" horiz-adv-x="926" 
d="M76 1957l162 100l197 -367l-94 -50zM409 1957l158 100l160 -367l-94 -50zM586 827c-84 -38 -139.999 -67.332 -167.999 -87.999s-49.167 -44.834 -63.5 -72.501s-21.5 -73.167 -21.5 -136.5v-139c0 -87.333 7.66699 -148.833 23 -184.5s41.666 -53.5 78.999 -53.5
s69.333 10.833 96 32.5s45 45.167 55 70.5v571zM145.001 1066c0 181.333 28.332 302 84.999 362s137.334 90 242.001 90s180.5 -25.333 227.5 -76s75.833 -132 86.5 -244c4.66699 -48 7 -107 7 -177v-1021h-206v130c-10.667 -36 -34 -68.833 -70 -98.5
s-80.667 -44.5 -134 -44.5c-170 0 -255.667 132.667 -257 398v146c0 86 23.5 159.5 70.5 220.5s176.833 130.5 389.5 208.5v116c0 128.667 -9.33301 206 -28 232s-50.5 39 -95.5 39s-75.167 -19.667 -90.5 -59s-23 -110.333 -23 -213v-52h-204v43z" />
    <glyph glyph-name="uni0202" unicode="&#x202;" horiz-adv-x="939" 
d="M220 1892l0.000976562 7c0 69.333 19.333 124 58 164s97 60 175 60c155.333 0 234.333 -73.333 237 -220v-15l-106 -2c-0.666992 79.333 -43.334 119 -128.001 119c-40.667 0 -72.667 -9 -96 -27c-22.667 -17.333 -34 -48.333 -34 -93v-4l-106 -2v13zM333.001 1760h249
l291 -1760h-195l-50 336h-319l-46 -336h-197zM332.001 504h270l-139 930h-3z" />
    <glyph glyph-name="uni0203" unicode="&#x203;" horiz-adv-x="926" 
d="M243 1632l0.000976562 7c0 69.333 19.333 124 58 164s97 60 175 60c155.333 0 234.333 -73.333 237 -220v-15l-106 -2c-0.666992 79.333 -43.334 119 -128.001 119c-40.667 0 -72.667 -9 -96 -27c-22.667 -17.333 -34 -48.333 -34 -93v-4l-106 -2v13zM586.001 827
c-84 -38 -139.999 -67.332 -167.999 -87.999s-49.167 -44.834 -63.5 -72.501s-21.5 -73.167 -21.5 -136.5v-139c0 -87.333 7.66699 -148.833 23 -184.5s41.666 -53.5 78.999 -53.5s69.333 10.833 96 32.5s45 45.167 55 70.5v571zM145.002 1066
c0 181.333 28.332 302 84.999 362s137.334 90 242.001 90s180.5 -25.333 227.5 -76s75.833 -132 86.5 -244c4.66699 -48 7 -107 7 -177v-1021h-206v130c-10.667 -36 -34 -68.833 -70 -98.5s-80.667 -44.5 -134 -44.5c-170 0 -255.667 132.667 -257 398v146
c0 86 23.5 159.5 70.5 220.5s176.833 130.5 389.5 208.5v116c0 128.667 -9.33301 206 -28 232s-50.5 39 -95.5 39s-75.167 -19.667 -90.5 -59s-23 -110.333 -23 -213v-52h-204v43z" />
    <glyph glyph-name="uni0204" unicode="&#x204;" horiz-adv-x="771" 
d="M10 2217l162 100l197 -367l-94 -50zM343 2217l158 100l160 -367l-94 -50zM144 1760h526v-172h-319v-602h302v-172h-302v-642h323v-172h-530v1760z" />
    <glyph glyph-name="uni0205" unicode="&#x205;" horiz-adv-x="893" 
d="M51 1957l162 100l197 -367l-94 -50zM384 1957l158 100l160 -367l-94 -50zM124 1035c0 189.333 33.9971 321 101.997 395c53.333 58.667 132 88 236 88c150.667 0 245.334 -65 284.001 -195c21.333 -73.333 32 -172.333 32 -297v-283h-448v-299
c0 -130 10.333 -211 31 -243s53.334 -48 98.001 -48s74.5 18.667 89.5 56s22.833 77.833 23.5 121.5s1 80.5 1 110.5v121h201v-64c0 -159.333 -11.167 -271 -33.5 -335s-56.166 -110.167 -101.499 -138.5s-101.5 -42.5 -168.5 -42.5s-120.667 8.5 -161 25.5
s-72.333 39.5 -96 67.5s-44.5 72.667 -62.5 134s-27 160 -27 296v530zM572.997 1073c0 106.667 -3.83301 171 -11.5 193s-17.5 41.333 -29.5 58s-33.667 25 -65 25c-60 0 -98 -25.167 -114 -75.5s-24 -119.5 -24 -207.5v-184h244v191z" />
    <glyph glyph-name="uni0206" unicode="&#x206;" horiz-adv-x="771" 
d="M144 1760h526v-172h-319v-602h302v-172h-302v-642h323v-172h-530v1760zM176 1892l0.000976562 7c0 69.333 19.333 124 58 164s97 60 175 60c155.333 0 234.333 -73.333 237 -220v-15l-106 -2c-0.666992 79.333 -43.334 119 -128.001 119c-40.667 0 -72.667 -9 -96 -27
c-22.667 -17.333 -34 -48.333 -34 -93v-4l-106 -2v13z" />
    <glyph glyph-name="uni0207" unicode="&#x207;" horiz-adv-x="893" 
d="M124 1035c0 189.333 33.9971 321 101.997 395c53.333 58.667 132 88 236 88c150.667 0 245.334 -65 284.001 -195c21.333 -73.333 32 -172.333 32 -297v-283h-448v-299c0 -130 10.333 -211 31 -243s53.334 -48 98.001 -48s74.5 18.667 89.5 56s22.833 77.833 23.5 121.5
s1 80.5 1 110.5v121h201v-64c0 -159.333 -11.167 -271 -33.5 -335s-56.166 -110.167 -101.499 -138.5s-101.5 -42.5 -168.5 -42.5s-120.667 8.5 -161 25.5s-72.333 39.5 -96 67.5s-44.5 72.667 -62.5 134s-27 160 -27 296v530zM572.997 1073
c0 106.667 -3.83301 171 -11.5 193s-17.5 41.333 -29.5 58s-33.667 25 -65 25c-60 0 -98 -25.167 -114 -75.5s-24 -119.5 -24 -207.5v-184h244v191zM218.997 1632l0.000976562 7c0 69.333 19.333 124 58 164s97 60 175 60c155.333 0 234.333 -73.333 237 -220v-15l-106 -2
c-0.666992 79.333 -43.334 119 -128.001 119c-40.667 0 -72.667 -9 -96 -27c-22.667 -17.333 -34 -48.333 -34 -93v-4l-106 -2v13z" />
    <glyph glyph-name="uni0208" unicode="&#x208;" horiz-adv-x="527" 
d="M-142 2217l162 100l197 -367l-94 -50zM191 2217l158 100l160 -367l-94 -50zM160 1760h207v-1760h-207v1760z" />
    <glyph glyph-name="uni0209" unicode="&#x209;" horiz-adv-x="504" 
d="M-161 1957l162 100l197 -367l-94 -50zM172 1957l158 100l160 -367l-94 -50zM149 1500h206v-1500h-206v1500z" />
    <glyph glyph-name="uni020A" unicode="&#x20a;" horiz-adv-x="527" 
d="M25 1892l0.000976562 7c0 69.333 19.333 124 58 164s97 60 175 60c155.333 0 234.333 -73.333 237 -220v-15l-106 -2c-0.666992 79.333 -43.334 119 -128.001 119c-40.667 0 -72.667 -9 -96 -27c-22.667 -17.333 -34 -48.333 -34 -93v-4l-106 -2v13zM160.001 1760h207
v-1760h-207v1760z" />
    <glyph glyph-name="uni020B" unicode="&#x20b;" horiz-adv-x="504" 
d="M149 1500h206v-1500h-206v1500zM17 1632l0.000976562 7c0 69.333 19.333 124 58 164s97 60 175 60c155.333 0 234.333 -73.333 237 -220v-15l-106 -2c-0.666992 79.333 -43.334 119 -128.001 119c-40.667 0 -72.667 -9 -96 -27c-22.667 -17.333 -34 -48.333 -34 -93v-4
l-106 -2v13z" />
    <glyph glyph-name="uni020C" unicode="&#x20c;" horiz-adv-x="944" 
d="M66 2219l162 100l197 -367l-94 -50zM399 2219l158 100l160 -367l-94 -50zM124 1282c0 200 35.998 337.333 107.998 412c56.667 58.667 139 88 247 88c157.333 0 258 -64.667 302 -194c26 -76.667 39 -178.667 39 -306v-776c0 -183.333 -25.667 -316.833 -77 -400.5
s-141.166 -125.5 -269.499 -125.5s-218.666 42 -270.999 126s-78.5 217.333 -78.5 400v776zM612.998 1294c0 112.667 -9.00195 192.5 -27.002 239.5s-54.333 70.5 -109 70.5s-92.667 -24 -114 -72s-32 -127 -32 -237v-791c0 -134 9.33301 -225.167 28 -273.5
s56.334 -72.5 113.001 -72.5s94.334 24.5 113.001 73.5s28 139.833 28 272.5v790z" />
    <glyph glyph-name="uni020D" unicode="&#x20d;" horiz-adv-x="914" 
d="M51 1957l162 100l197 -367l-94 -50zM384 1957l158 100l160 -367l-94 -50zM124 1027c0 243.333 56.001 394.999 168.001 454.999c45.333 24 98 36 158 36c156.667 0 256.667 -63 300 -189c26.667 -79.333 40 -180 40 -302v-531c0 -210.667 -28.333 -349 -85 -415
s-138.667 -99 -246 -99c-156.667 0 -256.334 66.667 -299.001 200c-24 76.667 -36 181.334 -36 314.001v531zM584.001 1068c0 142.667 -20.334 229.334 -61.001 260.001c-16.667 12.667 -38.334 19 -65.001 19c-54 0 -88.833 -24.333 -104.5 -73
s-23.5 -117.334 -23.5 -206.001v-629c0 -147.333 20.667 -236.333 62 -267c16.667 -12.667 37.334 -19 62.001 -19h4c52.667 0 86.834 24.833 102.501 74.5s23.5 120.167 23.5 211.5v629z" />
    <glyph glyph-name="uni020E" unicode="&#x20e;" horiz-adv-x="944" 
d="M124 1282c0 200 35.998 337.333 107.998 412c56.667 58.667 139 88 247 88c157.333 0 258 -64.667 302 -194c26 -76.667 39 -178.667 39 -306v-776c0 -183.333 -25.667 -316.833 -77 -400.5s-141.166 -125.5 -269.499 -125.5s-218.666 42 -270.999 126
s-78.5 217.333 -78.5 400v776zM612.998 1294c0 112.667 -9.00195 192.5 -27.002 239.5s-54.333 70.5 -109 70.5s-92.667 -24 -114 -72s-32 -127 -32 -237v-791c0 -134 9.33301 -225.167 28 -273.5s56.334 -72.5 113.001 -72.5s94.334 24.5 113.001 73.5s28 139.833 28 272.5
v790zM232.996 1894l0.000976562 7c0 69.333 19.333 124 58 164s97 60 175 60c155.333 0 234.333 -73.333 237 -220v-15l-106 -2c-0.666992 79.333 -43.334 119 -128.001 119c-40.667 0 -72.667 -9 -96 -27c-22.667 -17.333 -34 -48.333 -34 -93v-4l-106 -2v13z" />
    <glyph glyph-name="uni020F" unicode="&#x20f;" horiz-adv-x="914" 
d="M124 1027c0 243.333 56.001 394.999 168.001 454.999c45.333 24 98 36 158 36c156.667 0 256.667 -63 300 -189c26.667 -79.333 40 -180 40 -302v-531c0 -210.667 -28.333 -349 -85 -415s-138.667 -99 -246 -99c-156.667 0 -256.334 66.667 -299.001 200
c-24 76.667 -36 181.334 -36 314.001v531zM584.001 1068c0 142.667 -20.334 229.334 -61.001 260.001c-16.667 12.667 -38.334 19 -65.001 19c-54 0 -88.833 -24.333 -104.5 -73s-23.5 -117.334 -23.5 -206.001v-629c0 -147.333 20.667 -236.333 62 -267
c16.667 -12.667 37.334 -19 62.001 -19h4c52.667 0 86.834 24.833 102.501 74.5s23.5 120.167 23.5 211.5v629zM219 1632l0.000976562 7c0 69.333 19.333 124 58 164s97 60 175 60c155.333 0 234.333 -73.333 237 -220v-15l-106 -2
c-0.666992 79.333 -43.334 119 -128.001 119c-40.667 0 -72.667 -9 -96 -27c-22.667 -17.333 -34 -48.333 -34 -93v-4l-106 -2v13z" />
    <glyph glyph-name="uni0210" unicode="&#x210;" horiz-adv-x="953" 
d="M76 2217l162 100l197 -367l-94 -50zM409 2217l158 100l160 -367l-94 -50zM144 1760l369 -0.000976562c104.667 0 180 -21.667 226 -65s73.667 -117 83 -221c4 -42.667 6 -109.167 6 -199.5s-11.833 -166.166 -35.5 -227.499s-65.5 -101 -125.5 -119
c44 -7.33301 77.333 -30.5 100 -69.5s38.667 -101 48 -186s14 -211.333 14 -379s5.33301 -265.5 16 -293.5h-206c-10.667 21.333 -16 219 -16 593c0 126 -12.333 199.167 -37 219.5s-62 30.5 -112 30.5l-123 7v-850h-207v1760zM623 1329
c0 135.333 -12.167 213.668 -36.5 235.001s-59.5 32 -105.5 32h-130v-594h132c40 0 69.333 7.66699 88 23s32 44.666 40 87.999s12 111.333 12 204v12z" />
    <glyph glyph-name="uni0211" unicode="&#x211;" horiz-adv-x="651" 
d="M-44 1957l162 100l197 -367l-94 -50zM289 1957l158 100l160 -367l-94 -50zM608 1518c2.66699 0 4 -43.333 4 -130l-1 -44c-120 0 -206 -41.667 -258 -125v-1219h-206v1500h206v-167c17.333 58.667 47.833 104.167 91.5 136.5s98.167 48.5 163.5 48.5z" />
    <glyph glyph-name="uni0212" unicode="&#x212;" horiz-adv-x="953" 
d="M144 1760l369 -0.000976562c104.667 0 180 -21.667 226 -65s73.667 -117 83 -221c4 -42.667 6 -109.167 6 -199.5s-11.833 -166.166 -35.5 -227.499s-65.5 -101 -125.5 -119c44 -7.33301 77.333 -30.5 100 -69.5s38.667 -101 48 -186s14 -211.333 14 -379
s5.33301 -265.5 16 -293.5h-206c-10.667 21.333 -16 219 -16 593c0 126 -12.333 199.167 -37 219.5s-62 30.5 -112 30.5l-123 7v-850h-207v1760zM623 1329c0 135.333 -12.167 213.668 -36.5 235.001s-59.5 32 -105.5 32h-130v-594h132c40 0 69.333 7.66699 88 23
s32 44.666 40 87.999s12 111.333 12 204v12zM244 1892l0.000976562 7c0 69.333 19.333 124 58 164s97 60 175 60c155.333 0 234.333 -73.333 237 -220v-15l-106 -2c-0.666992 79.333 -43.334 119 -128.001 119c-40.667 0 -72.667 -9 -96 -27
c-22.667 -17.333 -34 -48.333 -34 -93v-4l-106 -2v13z" />
    <glyph glyph-name="uni0213" unicode="&#x213;" horiz-adv-x="651" 
d="M608 1518c2.66699 0 4 -43.333 4 -130l-1 -44c-120 0 -206 -41.667 -258 -125v-1219h-206v1500h206v-167c17.333 58.667 47.833 104.167 91.5 136.5s98.167 48.5 163.5 48.5zM123 1632l0.000976562 7c0 69.333 19.333 124 58 164s97 60 175 60
c155.333 0 234.333 -73.333 237 -220v-15l-106 -2c-0.666992 79.333 -43.334 119 -128.001 119c-40.667 0 -72.667 -9 -96 -27c-22.667 -17.333 -34 -48.333 -34 -93v-4l-106 -2v13z" />
    <glyph glyph-name="uni0214" unicode="&#x214;" horiz-adv-x="963" 
d="M76 2216l162 100l197 -367l-94 -50zM409 2216l158 100l160 -367l-94 -50zM623 1760h205.999v-1308c0 -164.667 -25.833 -284.667 -77.5 -360s-141.167 -113 -268.5 -113s-217.333 37.667 -270 113s-79 195.333 -79 360v1308h207v-1303
c0 -117.333 4.83301 -187.5 14.5 -210.5s19.834 -41.167 30.501 -54.5c18.667 -25.333 51 -38 97 -38s80 14 102 42s33.833 69.667 35.5 125s2.5 100.333 2.5 135v1304z" />
    <glyph glyph-name="uni0215" unicode="&#x215;" 
d="M93 1957l162 100l197 -367l-94 -50zM426 1957l158 100l160 -367l-94 -50zM616 1500h206v-1500h-206v153c-16 -50.667 -43.5 -92.167 -82.5 -124.5s-91.333 -48.5 -157 -48.5s-122 27.167 -169 81.5s-70.5 137.833 -70.5 250.5v1188h205v-1165c0 -118 43 -177 129 -177
c48 0 84.167 16.667 108.5 50s36.5 77.333 36.5 132v1160z" />
    <glyph glyph-name="uni0216" unicode="&#x216;" horiz-adv-x="963" 
d="M623 1760h205.999v-1308c0 -164.667 -25.833 -284.667 -77.5 -360s-141.167 -113 -268.5 -113s-217.333 37.667 -270 113s-79 195.333 -79 360v1308h207v-1303c0 -117.333 4.83301 -187.5 14.5 -210.5s19.834 -41.167 30.501 -54.5c18.667 -25.333 51 -38 97 -38
s80 14 102 42s33.833 69.667 35.5 125s2.5 100.333 2.5 135v1304zM250.999 1891l0.000976562 7c0 69.333 19.333 124 58 164s97 60 175 60c155.333 0 234.333 -73.333 237 -220v-15l-106 -2c-0.666992 79.333 -43.334 119 -128.001 119c-40.667 0 -72.667 -9 -96 -27
c-22.667 -17.333 -34 -48.333 -34 -93v-4l-106 -2v13z" />
    <glyph glyph-name="uni0217" unicode="&#x217;" 
d="M616 1500h206v-1500h-206v153c-16 -50.667 -43.5 -92.167 -82.5 -124.5s-91.333 -48.5 -157 -48.5s-122 27.167 -169 81.5s-70.5 137.833 -70.5 250.5v1188h205v-1165c0 -118 43 -177 129 -177c48 0 84.167 16.667 108.5 50s36.5 77.333 36.5 132v1160zM260 1632
l0.000976562 7c0 69.333 19.333 124 58 164s97 60 175 60c155.333 0 234.333 -73.333 237 -220v-15l-106 -2c-0.666992 79.333 -43.334 119 -128.001 119c-40.667 0 -72.667 -9 -96 -27c-22.667 -17.333 -34 -48.333 -34 -93v-4l-106 -2v13z" />
    <glyph glyph-name="Scommaaccent" unicode="&#x218;" horiz-adv-x="867" 
d="M303 -155h234v-218l-85 -297h-90l49 288h-108v227zM124 1215c-12 42 -17.999 92.3301 -17.999 150.997c0 127.333 23.5 228.5 70.5 303.5s136.833 112.5 269.5 112.5c170.667 0 271.334 -82 302.001 -246c13.333 -70.667 20 -159.667 20 -267v-104h-198v118
c0 112 -5.66699 187.333 -17 226s-25.333 64.334 -42 77.001s-38.334 19 -65.001 19c-50 0 -86 -18.333 -108 -55s-33 -91 -33 -163s10 -124.667 30 -158s44.667 -65.166 74 -95.499s45.666 -47.5 48.999 -51.5l120 -127c144 -150.667 216 -319.334 216 -506.001
c0 -152 -23.5 -268.167 -70.5 -348.5s-136.5 -120.5 -268.5 -120.5c-159.333 0 -260.333 70 -303 210c-24.667 78.667 -37 181.667 -37 309v10v171h201v-179c0 -128.667 9.33301 -218.167 28 -268.5s53.334 -75.5 104.001 -75.5s85.667 11.833 105 35.5
s30.5 59.834 33.5 108.501s4.5 103.334 4.5 164.001c0 122 -53.667 236.667 -161 344l-115 115c-102.667 105.333 -166.334 202.333 -191.001 291z" />
    <glyph glyph-name="scommaaccent" unicode="&#x219;" horiz-adv-x="805" 
d="M267 -155h234v-218l-85 -297h-90l49 288h-108v227zM745 344c-0.666992 -242.667 -107.668 -364 -321.001 -364c-108 0 -189 34.333 -243 103s-81 179 -81 331v113h199v-112c0 -173.333 39.333 -260 118 -260c43.333 0 74.5 14 93.5 42s28.5 76.667 28.5 146
c0 108.667 -50 212 -150 310c-7.33301 7.33301 -24.666 23.833 -51.999 49.5l-54 51.5c-130 124 -195 261 -195 411c0 118.667 28 207.167 84 265.5s135.667 87.5 239 87.5c70 0 127 -14.333 171 -43c92 -60 138 -201.667 138 -425v-72h-195v104
c0 87.333 -8.5 152.5 -25.5 195.5s-46.167 64.5 -87.5 64.5s-72.333 -13 -93 -39s-31 -70 -31 -132c0 -97.333 45.667 -191.333 137 -282l108 -101c141.333 -135.333 212 -283.333 212 -444z" />
    <glyph glyph-name="uni021A" unicode="&#x21a;" horiz-adv-x="633" 
d="M181 -155h234v-218l-85 -297h-90l49 288h-108v227zM28 1760h581v-172h-181v-1588h-206v1588h-194v172z" />
    <glyph glyph-name="uni021B" unicode="&#x21b;" horiz-adv-x="612" 
d="M249 -155h234v-218l-85 -297h-90l49 288h-108v227zM183 1760l205.001 0.000976562v-272h162v-152h-162v-1095c0 -38.667 9 -62.834 27 -72.501s63.667 -14.5 137 -14.5v-163h-141c-94.667 0 -156.334 17.167 -185.001 51.5s-43 94.5 -43 180.5v1113h-137v152h137v272z
" />
    <glyph glyph-name="uni0237" unicode="&#x237;" horiz-adv-x="540" 
d="M86 -6c9.33301 -1.33301 19.168 -1.99707 29.501 -1.99707s18.166 0.333008 23.499 1c32.667 3.33301 49 25.666 49 66.999v1440h206v-1430c0 -78.667 -16.167 -135.834 -48.5 -171.501s-71.833 -54.834 -118.5 -57.501c-14.667 -1.33301 -40.167 -2 -76.5 -2
s-59.833 3.66699 -70.5 11v144h6z" />
    <glyph glyph-name="circumflex" unicode="&#x2c6;" horiz-adv-x="970" 
d="M369 1886h232l153 -294h-183l-86 205l-86 -205h-184z" />
    <glyph glyph-name="caron" unicode="&#x2c7;" horiz-adv-x="970" 
d="M571 1886h183l-153 -294h-232l-154 294h184l86 -205z" />
    <glyph glyph-name="uni02C9" unicode="&#x2c9;" horiz-adv-x="696" 
d="M90 741h516v-142h-516v142z" />
    <glyph glyph-name="breve" unicode="&#x2d8;" horiz-adv-x="1016" 
d="M635 1856h106.001v-13c0 -72.667 -19.667 -128.5 -59 -167.5s-97.833 -58.5 -175.5 -58.5s-136.334 19.333 -176.001 58s-59.5 94 -59.5 166v15h106c0 -80.667 43.333 -121 130 -121c38.667 0 69.667 8.5 93 25.5s35 48.833 35 95.5z" />
    <glyph glyph-name="dotaccent" unicode="&#x2d9;" horiz-adv-x="572" 
d="M184 583h213v-178h-213v178z" />
    <glyph glyph-name="ring" unicode="&#x2da;" horiz-adv-x="923" 
d="M314.5 450.5c-35.667 36.333 -53.5 80.666 -53.5 132.999s17.833 96.666 53.5 132.999s84.5 54.5 146.5 54.5s110.833 -18.167 146.5 -54.5s53.5 -80.666 53.5 -132.999s-17.833 -96.666 -53.5 -132.999s-84.5 -54.5 -146.5 -54.5s-110.833 18.167 -146.5 54.5zM571 584
c0 31.333 -9.66699 58.5 -29 81.5s-46 34.5 -80 34.5s-60.5 -11.5 -79.5 -34.5s-28.5 -50.167 -28.5 -81.5s9.5 -58.5 28.5 -81.5s45.5 -34.5 79.5 -34.5s60.667 11.5 80 34.5s29 50.167 29 81.5z" />
    <glyph glyph-name="ogonek" unicode="&#x2db;" horiz-adv-x="1015" 
d="M646 0h85.001c-60.667 -59.333 -109.167 -122 -145.5 -188s-54.5 -122.333 -54.5 -169c0 -92.667 49.667 -139 149 -139c48 0 92 6.66699 132 20v-115c-13.333 -7.33301 -37 -15 -71 -23s-66.667 -12 -98 -12c-88 0 -155 21 -201 63s-69 97.833 -69 167.5
s24.167 141 72.5 214s115.166 133.5 200.499 181.5z" />
    <glyph glyph-name="tilde" unicode="&#x2dc;" horiz-adv-x="1117" 
d="M245 492c18 62 41.6689 103.833 71.002 125.5s62.166 32.5 98.499 32.5s87.333 -12.333 153 -37s105.5 -37 119.5 -37h4c11.333 2 21.166 7.5 29.499 16.5s17.166 27.167 26.499 54.5l123 -28l-9 -37c-16.667 -63.333 -36.667 -105.833 -60 -127.5
s-52.666 -32.5 -87.999 -32.5s-84.5 13.667 -147.5 41s-104 41 -123 41s-33.667 -1.16699 -44 -3.5s-24.5 -21.5 -42.5 -57.5z" />
    <glyph glyph-name="hungarumlaut" unicode="&#x2dd;" horiz-adv-x="1300" 
d="M688 505l185 415l188 -95l-284 -366zM396 505l128 415l185 -87l-223 -366z" />
    <glyph glyph-name="uni0307" unicode="&#x307;" horiz-adv-x="572" 
d="M147 716h278v-258h-278v258z" />
    <glyph glyph-name="uni030F" unicode="&#x30f;" horiz-adv-x="825" 
d="M6 1957l162 100l197 -367l-94 -50zM339 1957l158 100l160 -367l-94 -50z" />
    <glyph glyph-name="uni0311" unicode="&#x311;" horiz-adv-x="1016" 
d="M270 1632l0.000976562 7c0 69.333 19.333 124 58 164s97 60 175 60c155.333 0 234.333 -73.333 237 -220v-15l-106 -2c-0.666992 79.333 -43.334 119 -128.001 119c-40.667 0 -72.667 -9 -96 -27c-22.667 -17.333 -34 -48.333 -34 -93v-4l-106 -2v13z" />
    <glyph glyph-name="uni0326" unicode="&#x326;" horiz-adv-x="528" 
d="M145 128h234v-218l-85 -297h-90l49 288h-108v227z" />
    <glyph glyph-name="uni0394" unicode="&#x394;" horiz-adv-x="939" 
d="M333 1760h249l291 -1760h-807zM653 168l-190 1266h-3l-174 -1266h367z" />
    <glyph glyph-name="uni03BC" unicode="&#x3bc;" horiz-adv-x="971" 
d="M616 1500h206v-1500h-206v153c-16 -50.667 -43.5 -92.167 -82.5 -124.5s-87.5 -48.5 -145.5 -48.5c-20 0 -36.667 1.66699 -50 5v-171h-201v1686h205v-1165c0 -118 43 -177 129 -177c48 0 84.167 16.667 108.5 50s36.5 77.333 36.5 132v1160z" />
    <glyph glyph-name="pi" unicode="&#x3c0;" horiz-adv-x="482" 
 />
    <glyph glyph-name="uni1E02" unicode="&#x1e02;" horiz-adv-x="952" 
d="M399 2082h213v-178h-213v178zM160 1760l317.999 -0.00195312c132.667 0 222.834 -30.167 270.501 -90.5s72.167 -162.166 73.5 -305.499v-38c0 -103.333 -9.66699 -184.666 -29 -243.999s-54 -102.333 -104 -129c108 -44 162 -185 162 -423v-37
c-2 -176 -28.667 -302.167 -80 -378.5s-140.333 -114.5 -267 -114.5h-344v1760zM642.999 559.998c0 113.333 -9.33203 192.667 -27.999 238s-55.334 68 -110.001 68h-138v-699h127c58.667 0 98.167 23 118.5 69s30.5 133.667 30.5 263v61zM617 1361v6.00098
c0 117.333 -20.333 186.666 -61 207.999c-20 10.667 -49 16 -87 16h-102v-566h117c40 0 68.5 6.5 85.5 19.5s29.167 38.833 36.5 77.5s11 102 11 190v49z" />
    <glyph glyph-name="uni1E03" unicode="&#x1e03;" horiz-adv-x="937" 
d="M374 2079h213v-178h-213v178zM147 1779h205v-398c10.667 38.667 34.334 71.167 71.001 97.5s76 39.5 118 39.5c123.333 0 202.666 -61 237.999 -183c23.333 -78.667 35 -177 35 -295v-577c0 -185.333 -25.333 -314.333 -76 -387c-41.333 -59.333 -102 -89 -182 -89
c-97.333 0 -165.333 46.333 -204 139v-126h-205v1779zM608 1067c0 99.333 -4.5 161.666 -13.5 186.999s-19.5 47 -31.5 65s-33 27 -63 27c-29.333 0 -52 -3.33301 -68 -10c-53.333 -24 -80 -114 -80 -270v-608c0 -108.667 9.16699 -186.5 27.5 -233.5s53 -70.5 104 -70.5
s84.5 23.333 100.5 70s24 126.334 24 239.001v604z" />
    <glyph glyph-name="uni1E0A" unicode="&#x1e0a;" horiz-adv-x="949" 
d="M380 2082h213v-178h-213v178zM143 1760h330.999c134.667 0 227.334 -41.5 278.001 -124.5s76 -200.833 76 -353.5l1 -773c0 -180.667 -27.667 -310.667 -83 -390s-148.333 -119 -279 -119h-324v1760zM621.999 1287c0 110 -13 189 -39 237s-68.667 72 -128 72h-106v-1429
h106c40 0 71.333 8 94 24c48.667 34.667 73 130 73 286v810z" />
    <glyph glyph-name="uni1E0B" unicode="&#x1e0b;" horiz-adv-x="938" 
d="M352 2079h213v-178h-213v178zM586 1779l205.999 -0.000976562v-1779h-206v126c-37.333 -92.667 -106.333 -139 -207 -139c-138 0 -219 91 -243 273c-8 60.667 -12 134 -12 220v567c0 180.667 29.333 308.334 88 383.001c46.667 58.667 112.667 88 198 88
c37.333 0 71.833 -11 103.5 -33s55.834 -50.333 72.501 -85v379zM586.999 1050c0 105.333 -8.83301 181.001 -26.5 227.001s-51.667 69 -102 69s-84.333 -23.167 -102 -69.5s-26.5 -123.5 -26.5 -231.5v-606c0 -146.667 19.333 -235.334 58 -266.001
c16 -12.667 38.667 -19 68 -19s53.333 8 72 24c39.333 33.333 59 123.333 59 270v602z" />
    <glyph glyph-name="uni1E1E" unicode="&#x1e1e;" horiz-adv-x="746" 
d="M302 2082h213v-178h-213v178zM143 1760h530v-173h-324v-556h304v-175h-304v-856h-206v1760z" />
    <glyph glyph-name="uni1E1F" unicode="&#x1e1f;" horiz-adv-x="623" 
d="M326 2086h213v-178h-213v178zM200 1515c0 180.667 77.333 271 232 271c57.333 0 107 -7 149 -21v-143c-26.667 4 -55.667 6 -87 6s-54 -8.5 -68 -25.5s-21 -43.5 -21 -79.5v-81h176v-151h-176v-1291h-205v1291h-129v151h129v73z" />
    <glyph glyph-name="uni1E40" unicode="&#x1e40;" horiz-adv-x="1296" 
d="M554 2043h213v-178h-213v178zM893 1760h259v-1760h-184v706l17 658l-239 -1361h-187l-249 1361l17 -658v-706h-183v1760h258l252 -1447z" />
    <glyph glyph-name="uni1E41" unicode="&#x1e41;" horiz-adv-x="1432" 
d="M677 1783h213v-178h-213v178zM352 1344c14 50.667 41.6689 92.5 83.002 125.5s91.666 49.5 150.999 49.5c105.333 0 176 -50.667 212 -152c25.333 46.667 59.833 83.667 103.5 111s93.834 41 150.501 41c79.333 0 139.666 -28.333 180.999 -85s62 -140 62 -250v-1184
h-205v1190c0 101.333 -40 152 -120 152c-90.667 0 -139.334 -46.333 -146.001 -139v-1203h-206v1191c0 100.667 -39.333 151 -118 151c-48 0 -84.667 -15.5 -110 -46.5s-38 -73.5 -38 -127.5v-1168h-205v1500h205v-156z" />
    <glyph glyph-name="uni1E56" unicode="&#x1e56;" horiz-adv-x="890" 
d="M357 2043h213v-178h-213v178zM144 1760l354 0.000976562c156 0 254 -64.667 294 -194c25.333 -81.333 38 -176.333 38 -285s-3 -190.334 -9 -245.001c-13.333 -120 -45 -207.5 -95 -262.5s-126 -82.5 -228 -82.5h-147v-691h-207v1760zM623 1263
c0 120.667 -9.5 206.334 -28.5 257.001s-56.5 76 -112.5 76h-131v-733h126c58.667 0 97.667 25.667 117 77s29 147.666 29 288.999v34z" />
    <glyph glyph-name="uni1E57" unicode="&#x1e57;" horiz-adv-x="938" 
d="M375 1783h213v-178h-213v178zM352 1375c18.667 46 46.998 80.5 84.998 103.5s78.333 34.5 121 34.5c119.333 0 195 -62 227 -186c20 -77.333 30 -176.333 30 -297v-543c0 -199.333 -25.167 -333.333 -75.5 -402s-121.166 -103 -212.499 -103
c-36.667 0 -70.667 11.333 -102 34s-55.666 50.667 -72.999 84v-374h-205v1774h205v-125zM608.998 1066l0.000976562 19.001v17v15v13v11c0 51.333 -4.33301 88.666 -13 111.999c-9.33301 26 -18.333 45 -27 57c-17.333 24 -42.5 36 -75.5 36s-58.833 -6.33301 -77.5 -19
c-42.667 -28.667 -64 -115.667 -64 -261v-615c0 -106 9.16699 -182 27.5 -228s52.666 -69 102.999 -69s84 23.333 101 70s25.5 125 25.5 235v607z" />
    <glyph glyph-name="uni1E60" unicode="&#x1e60;" horiz-adv-x="867" 
d="M344 2042h213v-178h-213v178zM124 1215c-12 42 -17.999 92.3301 -17.999 150.997c0 127.333 23.5 228.5 70.5 303.5s136.833 112.5 269.5 112.5c170.667 0 271.334 -82 302.001 -246c13.333 -70.667 20 -159.667 20 -267v-104h-198v118c0 112 -5.66699 187.333 -17 226
s-25.333 64.334 -42 77.001s-38.334 19 -65.001 19c-50 0 -86 -18.333 -108 -55s-33 -91 -33 -163s10 -124.667 30 -158s44.667 -65.166 74 -95.499s45.666 -47.5 48.999 -51.5l120 -127c144 -150.667 216 -319.334 216 -506.001c0 -152 -23.5 -268.167 -70.5 -348.5
s-136.5 -120.5 -268.5 -120.5c-159.333 0 -260.333 70 -303 210c-24.667 78.667 -37 181.667 -37 309v10v171h201v-179c0 -128.667 9.33301 -218.167 28 -268.5s53.334 -75.5 104.001 -75.5s85.667 11.833 105 35.5s30.5 59.834 33.5 108.501s4.5 103.334 4.5 164.001
c0 122 -53.667 236.667 -161 344l-115 115c-102.667 105.333 -166.334 202.333 -191.001 291z" />
    <glyph glyph-name="uni1E61" unicode="&#x1e61;" horiz-adv-x="805" 
d="M322 1783h213v-178h-213v178zM745 344c-0.666992 -242.667 -107.668 -364 -321.001 -364c-108 0 -189 34.333 -243 103s-81 179 -81 331v113h199v-112c0 -173.333 39.333 -260 118 -260c43.333 0 74.5 14 93.5 42s28.5 76.667 28.5 146c0 108.667 -50 212 -150 310
c-7.33301 7.33301 -24.666 23.833 -51.999 49.5l-54 51.5c-130 124 -195 261 -195 411c0 118.667 28 207.167 84 265.5s135.667 87.5 239 87.5c70 0 127 -14.333 171 -43c92 -60 138 -201.667 138 -425v-72h-195v104c0 87.333 -8.5 152.5 -25.5 195.5
s-46.167 64.5 -87.5 64.5s-72.333 -13 -93 -39s-31 -70 -31 -132c0 -97.333 45.667 -191.333 137 -282l108 -101c141.333 -135.333 212 -283.333 212 -444z" />
    <glyph glyph-name="uni1E6A" unicode="&#x1e6a;" horiz-adv-x="637" 
d="M212 2082h213v-178h-213v178zM28 1760h581v-172h-181v-1588h-206v1588h-194v172z" />
    <glyph glyph-name="uni1E6B" unicode="&#x1e6b;" horiz-adv-x="612" 
d="M179 2060h213v-178h-213v178zM183 1760l205.001 0.000976562v-272h162v-152h-162v-1095c0 -38.667 9 -62.834 27 -72.501s63.667 -14.5 137 -14.5v-163h-141c-94.667 0 -156.334 17.167 -185.001 51.5s-43 94.5 -43 180.5v1113h-137v152h137v272z" />
    <glyph glyph-name="Wgrave" unicode="&#x1e80;" horiz-adv-x="1359" 
d="M505 1952v211l371 -194v-111zM1106 1760h190l-208 -1760h-205l-188 1299l-199 -1299h-200l-232 1760h191l150 -1349l200 1349h169l205 -1349z" />
    <glyph glyph-name="wgrave" unicode="&#x1e81;" horiz-adv-x="1160" 
d="M405 1692v211l371 -194v-111zM940 1500h168l-181 -1500h-189l-151 1174l-180 -1174h-181l-175 1500h172l79 -835l23 -287h9l38 288l119 834h179l119 -812l41 -310h8l24 311z" />
    <glyph glyph-name="Wacute" unicode="&#x1e82;" horiz-adv-x="1359" 
d="M1106 1760h190l-208 -1760h-205l-188 1299l-199 -1299h-200l-232 1760h191l150 -1349l200 1349h169l205 -1349zM509 2007l419 174v-199l-419 -86v111z" />
    <glyph glyph-name="wacute" unicode="&#x1e83;" horiz-adv-x="1160" 
d="M940 1500h168l-181 -1500h-189l-151 1174l-180 -1174h-181l-175 1500h172l79 -835l23 -287h9l38 288l119 834h179l119 -812l41 -310h8l24 311zM397 1747l419 174v-199l-419 -86v111z" />
    <glyph glyph-name="Wdieresis" unicode="&#x1e84;" horiz-adv-x="1359" 
d="M1106 1760h190l-208 -1760h-205l-188 1299l-199 -1299h-200l-232 1760h191l150 -1349l200 1349h169l205 -1349zM825 2056h230v-178h-230v178zM341 2056h230v-178h-230v178z" />
    <glyph glyph-name="wdieresis" unicode="&#x1e85;" horiz-adv-x="1160" 
d="M940 1500h168l-181 -1500h-189l-151 1174l-180 -1174h-181l-175 1500h172l79 -835l23 -287h9l38 288l119 834h179l119 -812l41 -310h8l24 311zM714 1796h230v-178h-230v178zM230 1796h230v-178h-230v178z" />
    <glyph glyph-name="Ygrave" unicode="&#x1ef2;" horiz-adv-x="836" 
d="M242 1952v211l371 -194v-111zM614 1760h203l-284 -1021v-739h-207v739l-306 1021h201l208 -720h4z" />
    <glyph glyph-name="ygrave" unicode="&#x1ef3;" horiz-adv-x="791" 
d="M221 1692v211l371 -194v-111zM558 1500l198.002 0.000976562l-249 -1529c-12 -83.333 -27.333 -137.666 -46 -162.999s-39.334 -41.5 -62.001 -48.5s-52.334 -10.5 -89.001 -10.5h-201v155h71c70 0 108.667 8 116 24c6 7.33301 9 21.666 9 42.999
s-2.66699 48.666 -8 81.999l-245 1447h199l108 -780l44 -406h18l39 406z" />
    <glyph glyph-name="endash" unicode="&#x2013;" horiz-adv-x="756" 
d="M120 741h516v-232h-516v232z" />
    <glyph glyph-name="emdash" unicode="&#x2014;" horiz-adv-x="1153" 
d="M60 741h1032v-171h-1032v171z" />
    <glyph glyph-name="quoteleft" unicode="&#x2018;" horiz-adv-x="591" 
d="M268 1779h129l-92 -423h148v-240h-309v231z" />
    <glyph glyph-name="quoteright" unicode="&#x2019;" horiz-adv-x="591" 
d="M160 1779h309v-231l-125 -432h-129l92 423h-147v240z" />
    <glyph glyph-name="quotesinglbase" unicode="&#x201a;" horiz-adv-x="484" 
d="M97 232h302v-223l-114 -391h-133l86 382h-141v232z" />
    <glyph glyph-name="quotedblleft" unicode="&#x201c;" horiz-adv-x="1030" 
d="M730 1779h132l-86 -401h141v-233h-302v224zM273 1779h133l-86 -401h141v-233h-302v224z" />
    <glyph glyph-name="quotedblright" unicode="&#x201d;" horiz-adv-x="1077" 
d="M630 1779h302v-224l-115 -410h-133l86 401h-140v233zM173 1779h302v-224l-114 -410h-133l86 401h-141v233z" />
    <glyph glyph-name="quotedblbase" unicode="&#x201e;" horiz-adv-x="1016" 
d="M622 233h302v-224l-114 -410h-133l86 401h-141v233zM166 233h302v-224l-115 -410h-132l86 401h-141v233z" />
    <glyph glyph-name="dagger" unicode="&#x2020;" horiz-adv-x="909" 
d="M352 1592h208v-410h258v-165h-258v-1017h-208v1017h-261v165h261v410z" />
    <glyph glyph-name="daggerdbl" unicode="&#x2021;" horiz-adv-x="927" 
d="M352 1592h208v-410h258v-165h-258v-349h258v-165h-258v-503h-208v503h-261v165h261v349h-261v165h261v410z" />
    <glyph glyph-name="bullet" unicode="&#x2022;" horiz-adv-x="861" 
d="M197 741c0 82.667 20 146.334 60 191.001s97.833 67 173.5 67s133.5 -22.333 173.5 -67s60 -108.334 60 -191.001s-20 -146.334 -60 -191.001s-97.833 -67 -173.5 -67s-133.5 22.333 -173.5 67s-60 108.334 -60 191.001z" />
    <glyph glyph-name="perthousand" unicode="&#x2030;" horiz-adv-x="3042" 
d="M1360 1760h171l-700 -1760h-179zM591 1433c0 72 -8.66699 121.333 -26 148s-50.333 40 -99 40s-81.667 -13.5 -99 -40.5s-26 -76.167 -26 -147.5v-496c0 -73.333 8.83301 -124.166 26.5 -152.499s50.5 -42.5 98.5 -42.5s80.833 14.167 98.5 42.5
s26.5 79.166 26.5 152.499v496zM156 1364c0 156 22.6689 264.667 68.002 326s126.166 92 242.499 92s197.166 -30.667 242.499 -92s68 -170 68 -326v-355c0 -158.667 -23 -269.667 -69 -333s-126.5 -95 -241.5 -95s-195.5 31.667 -241.5 95s-69 174.333 -69 333v355z
M1854 832c0 72 -8.66699 121.333 -26 148s-50.333 40 -99 40s-81.667 -13.5 -99 -40.5s-26 -76.167 -26 -147.5v-496c0 -73.333 8.83301 -124.166 26.5 -152.499s50.5 -42.5 98.5 -42.5s80.833 14.167 98.5 42.5s26.5 79.166 26.5 152.499v496zM1419 763
c0 156 22.6689 264.667 68.002 326s126.166 92 242.499 92s197.166 -30.667 242.499 -92s68 -170 68 -326v-355c0 -158.667 -23 -269.667 -69 -333s-126.5 -95 -241.5 -95s-195.5 31.667 -241.5 95s-69 174.333 -69 333v355zM2265 763c0 156 22.667 264.667 68 326
s126.166 92 242.5 92c116.333 0 197.166 -30.667 242.5 -92c45.333 -61.333 68 -170 68 -326v-355c0 -158.667 -23 -269.667 -69 -333s-126.5 -95 -241.5 -95s-195.5 31.667 -241.5 95s-69 174.333 -69 333v355zM2701 832c0 72 -8.66699 121.333 -26 148s-50.333 40 -99 40
s-81.667 -13.5 -99 -40.5s-26 -76.167 -26 -147.5v-496c0 -73.333 8.83301 -124.166 26.5 -152.499s50.5 -42.5 98.5 -42.5s80.833 14.167 98.5 42.5s26.5 79.166 26.5 152.499v496z" />
    <glyph glyph-name="guilsinglleft" unicode="&#x2039;" horiz-adv-x="606" 
d="M70 839l478 271v-207l-312 -154l312 -163v-214l-478 285v182z" />
    <glyph glyph-name="guilsinglright" unicode="&#x203a;" horiz-adv-x="727" 
d="M153 903v207l478 -271v-182l-478 -285v214l312 163z" />
    <glyph glyph-name="fraction" unicode="&#x2044;" horiz-adv-x="829" 
d="M531 1768h178l-456 -1768h-177z" />
    <glyph glyph-name="uni2074" unicode="&#x2074;" horiz-adv-x="855" 
d="M448 1761h171v-846h92v-112h-92v-224h-136v224h-295v97zM483 915v611l-167 -611h167z" />
    <glyph glyph-name="Euro" unicode="&#x20ac;" horiz-adv-x="1076" 
d="M124 1252c0 133.333 10.9971 231.332 32.9971 293.999s46 108.667 72 138c56.667 64 139.334 96.333 248.001 97c152 -0.666992 250 -67.667 294 -201c25.333 -76.667 38 -178.667 38 -306v-195h-203v196c0 112.667 -6.16699 188.834 -18.5 228.501
s-27.166 66 -44.499 79s-39.333 19.5 -66 19.5c-55.333 0 -93.5 -26.167 -114.5 -78.5s-31.5 -134.833 -31.5 -247.5v-170h187v-140h-187v-97h187v-148h-187v-207c0 -133.333 9.5 -226.5 28.5 -279.5s55.667 -79.5 110 -79.5s90.666 26.667 108.999 80
s27.5 146.666 27.5 279.999v195h205v-193c0 -184.667 -25.167 -320.5 -75.5 -407.5s-138.166 -130.5 -263.499 -130.5s-214.666 44.833 -267.999 134.5s-80 224.834 -80 405.501v202h-101v148h101v97h-101v140h101v146z" />
    <glyph glyph-name="trademark" unicode="&#x2122;" horiz-adv-x="1537" 
d="M1206 1761h207v-1285h-140v525l12 497l-170 -1022h-149l-177 1022l12 -497v-525h-140v1285h207l172 -1044zM103 1761h428v-126h-133v-1159h-152v1159h-143v126z" />
    <glyph glyph-name="partialdiff" unicode="&#x2202;" horiz-adv-x="1072" 
d="M546 1516.5c-15.333 2.33301 -41.3359 3.49902 -78.0029 3.49902s-98.334 -11.333 -185.001 -34l-24 121c110.667 30 194.834 45 252.501 45s101.167 -3 130.5 -9c108.667 -22 177.334 -83 206.001 -183c14 -47.333 21 -99.666 21 -156.999s-6.33301 -125.333 -19 -204
l-100 -853c-8 -68.667 -34.167 -130.334 -78.5 -185.001s-119.5 -82 -225.5 -82c-189.333 0 -284 110.333 -284 331c0 168.667 14 329 42 481s86 244.667 174 278c30.667 11.333 58.334 17 83.001 17s40.834 -0.166992 48.501 -0.5s15.667 -1.33301 24 -3
s14.833 -2.83398 19.5 -3.50098s12.167 -2.66699 22.5 -6l22 -7c4.33301 -1.33301 13.333 -4.33301 27 -9l29.5 -10c20 129.333 30 210.5 30 243.5s-0.666992 56.5 -2 70.5s-3.5 27.333 -6.5 40s-7 24.334 -12 35.001s-11.167 20.5 -18.5 29.5s-15.833 16.833 -25.5 23.5
s-20.5 12.334 -32.5 17.001s-25.667 8.16699 -41 10.5zM350.997 306.999l-1 -11.001c0 -101.333 34.667 -152 104 -152c40 0 64 4.83301 72 14.5s16.5 22.334 25.5 38.001s15.5 46.5 19.5 92.5l61 610c-43.333 27.333 -82 41 -116 41c-70 0 -110.667 -58.333 -122 -175
l-41 -420l-2 -25v-13z" />
    <glyph glyph-name="product" unicode="&#x220f;" horiz-adv-x="981" 
d="M146 1760h689v-1760h-204v1598h-281v-1598h-204v1760z" />
    <glyph glyph-name="summation" unicode="&#x2211;" horiz-adv-x="716" 
d="M116 1761h547v-180h-313l238 -701l-238 -695h313v-185h-547v181l245 700l-245 704v176z" />
    <glyph glyph-name="minus" unicode="&#x2212;" horiz-adv-x="637" 
d="M60 741h516v-232h-516v232z" />
    <glyph glyph-name="uni2215" unicode="&#x2215;" horiz-adv-x="829" 
d="M531 1768h178l-456 -1768h-177z" />
    <glyph glyph-name="radical" unicode="&#x221a;" horiz-adv-x="1177" 
d="M679 1500h403v-141h-204l-261 -1359h-254l-264 741h229l150 -483z" />
    <glyph glyph-name="infinity" unicode="&#x221e;" horiz-adv-x="1300" 
d="M639 885c38 46.667 81.9961 84.332 131.996 112.999s97 43 141 43c80.667 0 145.834 -27.167 195.501 -81.5s74.5 -126.666 74.5 -216.999s-24.667 -163.5 -74 -219.5s-114.666 -84 -195.999 -84c-47.333 0 -96 13.333 -146 40s-92.333 62 -127 106
c-35.333 -40 -77.666 -72.167 -126.999 -96.5s-96.666 -36.5 -141.999 -36.5c-78.667 0 -142 26.833 -190 80.5s-72 123.667 -72 210s24 155.5 72 207.5s111.333 78 190 78c42 0 87.667 -13.167 137 -39.5s93.333 -60.833 132 -103.5zM587.996 739.998
c-27.333 43.333 -60.499 78.168 -99.499 104.501s-76.333 39.5 -112 39.5s-63.834 -13.167 -84.501 -39.5s-31 -61.333 -31 -105s10.333 -78.834 31 -105.501s48.667 -40 84 -40s72.5 13.333 111.5 40s72.5 62 100.5 106zM1031 740c0 44 -11 79.333 -33 106
s-51.667 40 -89 40s-76.666 -13.333 -117.999 -40s-76.333 -62 -105 -106c26.667 -44 60.667 -79.333 102 -106s81.166 -40 119.499 -40s68.5 13.333 90.5 40s33 62 33 106z" />
    <glyph glyph-name="integral" unicode="&#x222b;" horiz-adv-x="767" 
d="M115 157l52 -3c50.667 0 83.167 9.83301 97.5 29.5s21.5 60.167 21.5 121.5v1234c0 164 65.667 246 197 246c54 0 110.333 -11 169 -33v-149c-42 12.667 -75.5 19 -100.5 19s-43.167 -9.33301 -54.5 -28s-17 -49 -17 -91v-1282c0 -157.333 -70 -236 -210 -236
c-48 0 -99.667 7.66699 -155 23v149z" />
    <glyph glyph-name="approxequal" unicode="&#x2248;" horiz-adv-x="1117" 
d="M349 1150c38 0 107.668 -14.667 209.001 -44c99.333 -28.667 155 -43 167 -43h1c51.333 0 88.333 38 111 114l164 -42c-19.333 -76 -49.666 -142.833 -90.999 -200.5s-84.333 -86.5 -129 -86.5s-116.834 15.333 -216.501 46s-167.334 46 -203.001 46
s-66.834 -31 -93.501 -93l-149 78c52.667 150 129.334 225 230.001 225zM349.001 704c38 0 107.668 -14.667 209.001 -44c99.333 -28.667 155 -43 167 -43h1c51.333 0 88.333 38 111 114l164 -42c-19.333 -76 -49.666 -142.833 -90.999 -200.5s-84.333 -86.5 -129 -86.5
s-116.834 15.333 -216.501 46s-167.334 46 -203.001 46s-66.834 -31 -93.501 -93l-149 78c52.667 150 129.334 225 230.001 225z" />
    <glyph glyph-name="notequal" unicode="&#x2260;" horiz-adv-x="884" 
d="M84 735h584v-159h-584v159zM84 1050h584v-158h-584v158zM526 1768h183l-440 -1768h-182z" />
    <glyph glyph-name="lessequal" unicode="&#x2264;" horiz-adv-x="781" 
d="M70 878l577 381v-220l-434 -265l434 -278v-214l-577 385v211zM102 144h540v-144h-540v144z" />
    <glyph glyph-name="greaterequal" unicode="&#x2265;" horiz-adv-x="781" 
d="M103 1039v220l577 -381v-211l-577 -385v214l433 278zM105 144h540v-144h-540v144z" />
    <glyph glyph-name="lozenge" unicode="&#x25ca;" horiz-adv-x="921" 
d="M297 1626h321l229 -763l-229 -753h-321l-223 753zM629 863l-154 574h-32l-154 -574l154 -574h32z" />
    <glyph glyph-name="uniF8FF" unicode="&#xf8ff;" horiz-adv-x="327" 
 />
    <glyph glyph-name="uniFB00" unicode="&#xfb00;" horiz-adv-x="1246" 
d="M823 1515c0 180.667 77.333 271 232 271c57.333 0 107 -7 149 -21v-143c-26.667 4 -55.667 6 -87 6s-54 -8.5 -68 -25.5s-21 -43.5 -21 -79.5v-81h176v-151h-176v-1291h-205v1291h-418v-1291h-205v1291h-129v151h129v73c0 180.667 77.333 271 232 271
c57.333 0 107 -7 149 -21v-143c-26.667 4 -55.667 6 -87 6s-54 -8.5 -68 -25.5s-21 -43.5 -21 -79.5v-81h418v73z" />
    <glyph glyph-name="uniFB01" unicode="&#xfb01;" horiz-adv-x="1126" 
d="M200 1535c0 180.667 77.333 271 232 271c57.333 0 107 -7 149 -21v-143c-26.667 4 -55.667 6 -87 6s-54 -8.5 -68 -25.5s-21 -43.5 -21 -79.5v-43h573v-1500h-205v1349h-368v-1349h-205v1349h-129v151h129v35zM773 1800h205v-189h-205v189z" />
    <glyph glyph-name="uniFB02" unicode="&#xfb02;" horiz-adv-x="1124" 
d="M200 1515c0 95.333 31.3311 166 93.998 212s145.667 69 249 69c42.667 0 88.834 -4 138.501 -12s147.834 -27.667 294.501 -59v-1725h-205v1622c-64 13.333 -123 20 -177 20c-126 0 -189 -39.667 -189 -119v-81h176v-151h-176v-1291h-205v1291h-129v151h129v73z" />
    <glyph glyph-name="uniFB03" unicode="&#xfb03;" horiz-adv-x="1749" 
d="M823 1547c0 180.667 77.333 271 232 271c57.333 0 107 -7 149 -21v-143c-26.667 4 -55.667 6 -87 6s-54 -8.5 -68 -25.5s-21 -43.5 -21 -79.5v-55h573v-1500h-205v1349h-368v-1349h-205v1349h-418v-1349h-205v1349h-129v151h129v47c0 180.667 77.333 271 232 271
c57.333 0 107 -7 149 -21v-143c-26.667 4 -55.667 6 -87 6s-54 -8.5 -68 -25.5s-21 -43.5 -21 -79.5v-55h418v47zM1396 1800h205v-189h-205v189z" />
    <glyph glyph-name="uniFB04" unicode="&#xfb04;" horiz-adv-x="1747" 
d="M823 1515c0 95.333 31.3311 166 93.998 212s145.667 69 249 69c42.667 0 88.834 -4 138.501 -12s147.834 -27.667 294.501 -59v-1725h-205v1622c-64 13.333 -123 20 -177 20c-126 0 -189 -39.667 -189 -119v-81h176v-151h-176v-1291h-205v1291h-418v-1291h-205v1291h-129
v151h129v73c0 180.667 77.333 271 232 271c57.333 0 107 -7 149 -21v-143c-26.667 4 -55.667 6 -87 6s-54 -8.5 -68 -25.5s-21 -43.5 -21 -79.5v-81h418v73z" />
    <glyph glyph-name="glyph1" horiz-adv-x="0" 
 />
    <glyph glyph-name="glyph2" horiz-adv-x="682" 
 />
    </font>
</defs>
</svg>
